<?xml version="1.0" standalone="no"?>
<!DOCTYPE svg PUBLIC "-//W3C//DTD SVG 1.1//EN" "http://www.w3.org/Graphics/SVG/1.1/DTD/svg11.dtd">
<svg xmlns="http://www.w3.org/2000/svg">
<defs >
<font id="Allura" horiz-adv-x="574" ><font-face
    font-family="Allura"
    units-per-em="1000"
    panose-1="0 0 0 0 0 0 0 0 0 0"
    ascent="800"
    descent="-450"
    alphabetic="0" />
<glyph unicode=" " glyph-name="space" horiz-adv-x="219" />
<glyph unicode="!" glyph-name="exclam" horiz-adv-x="163" d="M159 143Q147 143 147 154Q147 156 147 158T149 163Q166 209 186 262T229 368T270 466Q288 509 301 541T322 582Q325 585 330 585Q341 585 355 573T369 549Q369 539 364 522T346 483Q341 474 335
471T323 457Q286 385 248 310T183 157Q182 152 174 148T159 143ZM127 0Q117 0 106 2T94 16Q94 21 105 31T129 51T148 61Q155 61 155 54T154 39Q154 35 149 26T138 8T127 0Z" />
<glyph unicode="&quot;" glyph-name="quotedbl" horiz-adv-x="256" d="M198 303Q188 303 189 318Q191 331 192 352T193 392T194 414Q194 424 193 432T192 447Q192 459 198 465T225 472Q245 472 245 453Q245 442 241 429T234 408Q230 389 223 367T209 314Q206 303
198 303ZM85 303Q82 303 80 307T78 318Q80 329 80 346T81 379V414Q82 423 81 431T80 447Q80 458 86 465T112 472Q124 472 128 466T132 451Q132 441 129 429T123 408Q118 389 110 367T95 314Q92 303 85 303Z" />
<glyph unicode="#" glyph-name="numbersign" horiz-adv-x="773" d="M401 -1Q397 -1 392 4T387 17Q387 26 396 58T420 137Q370 136 318 136T219 135Q206 97 197 71T186 36Q182 18 176 11T163 4Q157 4 152 9T147 22Q147 30 156 60T180 135Q131 134 98 134T55 132Q34
131 25 136T15 148Q15 157 27 164Q32 168 78 169T191 171Q206 216 223 266T259 365Q206 364 170 364T123 363Q101 362 92 367T82 379Q82 388 94 395Q99 398 149 400T271 402Q297 473 316 525T339 589Q356 635 367 635Q374 635 373 614L374 613Q374 610 365 580T341
504T307 402H511Q536 471 555 522T578 584Q586 606 594 618T608 631Q614 631 613 609H614Q614 606 605 577T581 502T548 402L694 399Q719 398 733 395T748 386Q748 380 728 374V373Q725 372 699 371T630 370T537 368Q521 318 503 267T471 171L626 169Q651 168 666
164T681 154Q681 147 662 143V142Q658 141 630 140T558 139T459 137Q446 97 438 69T426 33Q420 14 414 7T401 -1ZM229 171H432Q447 217 465 268T500 368Q449 367 396 367T295 365L229 171Z" />
<glyph unicode="$" glyph-name="dollar" horiz-adv-x="436" d="M78 -12Q68 -12 68 -5Q68 1 76 21T100 72Q85 79 73 87T61 105Q61 107 63 110T68 112Q84 104 114 98Q126 123 140 151T172 210Q144 239 119 275T94 354Q94 394 113 424T165 474T235 505T309 515Q318
515 326 515T342 513H346Q352 524 357 531T365 541Q370 546 377 548T392 550Q401 550 406 547T407 538Q403 531 397 523T384 504Q406 496 424 481T442 439Q442 411 425 386T384 342T335 313Q332 312 330 312T326 311Q322 311 322 314Q322 318 329 325Q341 336 359
353T392 392Q403 407 409 420T415 444Q415 473 368 482Q335 431 291 358T203 206Q229 178 249 151T270 101Q270 83 254 73T216 58T174 54Q168 54 163 54T153 55Q149 56 144 57T130 61Q117 33 106 7Q102 -1 94 -6T78 -12ZM182 228Q220 299 260 368T328 484Q295 482
260 469T193 435T143 387T123 326Q123 304 140 279T182 228ZM145 95Q177 93 204 101T233 135Q233 144 222 157T192 188Q180 166 168 142T145 95Z" />
<glyph unicode="%" glyph-name="percent" horiz-adv-x="463" d="M70 -12Q60 -12 60 -5Q60 3 77 35T124 116T188 220T258 331T323 434T372 510Q339 499 301 499Q271 499 250 506Q251 501 251 494T251 478Q247 445 228 416T182 369T129 350Q92 349 77 370T66 420Q71
459 90 486T136 529T192 544Q204 544 215 541T236 529Q250 524 266 522T300 519Q327 519 352 524T393 541Q398 546 408 548T429 550Q440 550 447 547T449 538Q431 516 399 473T326 373T244 253T165 126T100 7Q96 -1 87 -6T70 -12ZM129 369Q149 369 164 382T191
414T208 446Q211 454 213 466T216 490Q216 504 210 515T187 527Q168 527 152 514T125 482T108 450Q105 442 103 430T100 406Q100 392 106 381T129 369ZM289 -1Q252 -1 238 21T227 72Q232 109 251 136T297 178T353 193Q376 193 394 182T413 139Q413 103 394 71T347
19T289 -1ZM292 20Q310 20 325 33T352 64T368 96Q371 104 374 117T377 142Q377 156 371 166T349 176Q331 176 315 164T287 133T270 100Q267 92 265 80T262 57Q262 43 268 32T292 20Z" />
<glyph unicode="&amp;" glyph-name="ampersand" horiz-adv-x="697" d="M254 -32Q247 -33 240 -33T226 -33Q163 -33 122 -13T60 40T39 109Q39 154 69 197T158 262Q192 275 223 278T282 281T327 284Q303 305 278 335T236 402T219 473Q219 489 223 504T237 532Q248
547 271 557T323 574T376 580Q407 580 437 565T487 527Q495 537 505 545T526 554Q528 555 532 555Q540 555 545 552T551 542Q551 537 545 532Q541 526 531 519T509 501Q495 488 484 472T473 438Q473 428 479 419Q480 418 480 416Q480 411 474 411Q469 411 464 416Q459
423 459 446Q459 460 462 475T472 504Q473 505 473 506T475 509Q459 527 431 542T372 557Q361 557 350 554Q316 547 303 522T290 465Q290 436 298 404T320 345T346 301Q358 285 358 278Q358 270 340 267Q294 262 251 246T181 217Q135 194 112 161T89 96Q89 53 127
21T235 -12Q242 -12 249 -12T263 -11Q324 -5 379 18T478 84T541 196Q546 210 547 225T549 253Q549 267 548 278T543 294Q514 277 483 261T425 227Q411 219 388 198T346 151T328 105Q328 90 340 81Q348 75 348 69Q348 66 343 66Q339 66 335 68Q322 72 316 89T309
128Q309 159 321 183Q332 204 352 219T402 252Q438 273 479 293T556 331T615 368T638 406Q638 409 638 412T636 418Q636 419 636 419T635 421Q635 425 638 425Q643 425 647 418Q651 409 651 398Q651 371 624 347T557 300Q568 288 581 263T594 212Q594 208 594 205T593
197Q583 139 548 98T462 29T358 -13T254 -32Z" />
<glyph unicode="&apos;" glyph-name="quotesingle" horiz-adv-x="145" d="M85 303Q82 303 80 307T78 318Q80 329 80 346T81 379V414Q82 423 81 431T80 447Q80 458 86 465T112 472Q124 472 128 466T132 451Q132 441 129 429T123 408Q118 389 110 367T95 314Q92
303 85 303Z" />
<glyph unicode="(" glyph-name="parenleft" horiz-adv-x="380" d="M91 -161Q80 -161 76 -152Q53 -108 42 -58T30 43Q30 155 78 257Q116 341 176 406T308 514T454 573Q457 574 461 574Q470 574 470 568Q470 557 452 550Q381 527 315 481T196 371T116 225Q103 184
95 137T87 42Q87 -5 95 -49T121 -129Q127 -140 115 -150T91 -161Z" />
<glyph unicode=")" glyph-name="parenright" horiz-adv-x="517" d="M-21 -152Q-24 -153 -28 -153Q-36 -153 -36 -147Q-36 -143 -32 -138T-18 -131Q53 -108 119 -62T237 50T317 196Q331 237 339 283T347 376Q347 423 339 468T312 549Q306 561 317 571T342 581Q353
581 357 573Q380 528 391 478T402 376Q402 265 356 164Q318 80 258 15T125 -93T-21 -152Z" />
<glyph unicode="*" glyph-name="asterisk" horiz-adv-x="642" d="M373 187Q369 186 361 191T342 215Q340 219 333 232T317 263Q310 277 303 291T290 314Q259 274 242 250T216 217Q200 195 185 195Q174 195 170 204T167 221Q169 225 176 234T197 260Q210 273 225
291T260 333Q218 332 184 332T140 330Q124 329 116 334T107 344V345Q107 351 112 356T124 365Q132 369 174 370T268 372Q259 388 248 408T227 448T214 477Q211 485 211 492Q211 503 217 509T230 516Q246 516 256 494Q259 486 273 457T300 392Q322 418 343 442T380
485T399 509Q405 517 410 521T419 527Q421 528 425 528Q432 528 433 523Q434 521 434 517Q434 502 424 489Q412 473 401 459T376 424T335 372Q350 371 365 371T396 371Q425 371 448 371T478 372Q504 371 514 368T525 359Q525 353 511 347T481 340Q477 340 454 339T398
337T325 335Q341 291 358 258T379 219Q382 210 382 203Q382 189 373 187Z" />
<glyph unicode="+" glyph-name="plus" horiz-adv-x="614" d="M227 -18Q216 -18 216 -8Q216 -3 221 9Q225 17 236 41T263 101T297 174Q252 173 212 172T145 171T113 170Q92 170 92 180Q92 188 103 197T124 206H312Q335 256 353 296T380 350Q390 369 402 369Q410
369 410 359Q410 351 404 337L347 208H521Q549 208 549 195Q549 181 522 178Q511 177 482 177T415 176T333 174L259 1Q256 -6 246 -12T227 -18Z" />
<glyph unicode="," glyph-name="comma" horiz-adv-x="178" d="M45 -119Q42 -121 39 -121Q35 -121 35 -118T34 -113Q34 -112 40 -104T56 -85Q70 -68 82 -50T101 -9Q105 0 105 8Q105 18 101 22T96 35Q96 41 97 44Q100 53 110 53T125 53Q137 53 144 42T151 21Q151
11 138 -9T107 -52T71 -94T45 -119Z" />
<glyph unicode="-" glyph-name="hyphen" horiz-adv-x="376" d="M161 170Q143 170 143 180Q143 188 154 197T176 206Q187 206 214 206T272 207T323 208Q348 208 363 204T379 194Q379 188 367 185T342 181T324 178Q300 177 268 175T206 172T161 170Z" />
<glyph unicode="." glyph-name="period" horiz-adv-x="181" d="M127 0Q117 0 106 2T94 16Q94 21 105 31T129 51T148 61Q155 61 155 54T154 39Q154 35 149 26T138 8T127 0Z" />
<glyph unicode="/" glyph-name="slash" horiz-adv-x="466" d="M28 -12Q16 -12 20 -1Q24 11 45 44T98 123T167 222T244 327T317 425T375 501T410 541Q415 546 423 548T439 551Q447 551 450 548T449 538Q429 516 393 473T313 372T222 252T133 125T58 7Q53 -1 44 -6T28 -12Z" />
<glyph unicode="0" glyph-name="zero" horiz-adv-x="549" d="M221 -23Q162 -23 123 4T64 76T44 176Q44 233 67 293T133 406T233 490T359 523Q386 523 406 510T426 473Q426 459 420 459Q420 459 420 459T418 461Q410 475 395 479T367 484Q318 484 269 458T180 385T115
279T90 154Q90 114 102 80T140 25T210 4Q265 4 317 36T411 121T478 238T503 365Q503 443 457 489Q443 503 418 512T368 527T324 536T306 540Q306 545 314 549T333 554Q394 554 442 525T519 446T548 333Q548 270 522 207T451 92T346 9T221 -23Z" />
<glyph unicode="1" glyph-name="one" horiz-adv-x="312" d="M6 -21Q0 -21 0 -15Q0 4 15 11T58 21T118 28Q124 57 140 107T179 217T226 337T271 446Q259 434 241 417T203 383T167 354T141 342Q136 342 136 346Q137 350 155 368T198 409T239 450Q252 464 269 486T302
527T328 545Q337 545 353 539T370 522Q339 461 306 393T243 256T189 130T154 29H196Q216 29 236 29T274 25Q284 24 284 16Q284 6 266 6Q251 6 235 6T201 7Q189 7 176 7T149 5V4Q142 -5 127 -5Q120 -5 116 0Q90 -4 61 -12T6 -21Z" />
<glyph unicode="2" glyph-name="two" horiz-adv-x="583" d="M419 -16Q415 -16 386 -12T313 0T223 20T141 47Q139 44 124 31T92 6T64 -7Q58 -7 58 0Q58 50 88 65T161 80Q195 100 242 129T340 195T433 270T502 349T529 425Q529 465 497 487T412 510Q396 510 378
508T341 500Q330 497 307 489T259 468T216 440T198 406Q198 400 201 394T205 382Q205 373 198 373Q190 373 181 389T171 418Q171 441 191 461T241 496T298 522T342 535Q363 539 384 541T424 544Q499 544 548 515T597 435Q597 396 569 355T496 274T396 198T289 130T192
76Q274 63 331 44T431 25Q469 25 502 33T541 60Q546 72 554 72Q561 72 561 63Q561 44 546 30T507 5T460 -10T419 -16Z" />
<glyph unicode="3" glyph-name="three" horiz-adv-x="540" d="M186 -28Q165 -28 140 -25T92 -11T55 18T40 69Q40 86 47 102T68 119Q85 119 85 103Q85 95 83 87T80 69Q82 40 100 23T142 -1T187 -9Q228 -9 270 8T347 55T405 125T427 209Q427 237 406 259T342 294Q317
293 295 288T255 282H249Q236 283 231 289T225 303Q225 311 230 316T248 322Q259 322 272 320T300 317Q340 317 375 332T431 373T453 427Q453 459 425 483T350 508Q331 508 306 503T258 486T219 458T203 416Q203 411 198 407T187 403Q181 403 181 412Q181 453 206
481T273 524T367 539Q404 539 436 528T489 494T509 435Q509 397 481 358T395 301Q433 300 459 274T486 205Q486 151 458 108T384 35T287 -12T186 -28Z" />
<glyph unicode="4" glyph-name="four" horiz-adv-x="469" d="M232 -36Q221 -36 221 -25Q221 -1 238 56T279 181L129 196Q123 197 118 197T106 197Q80 197 63 188T34 169T13 159Q10 159 10 164Q10 189 36 213T110 270T225 351Q268 382 307 417T376 485T426 537T447
558Q456 558 471 547T486 527Q486 523 484 522Q452 455 412 379T336 222Q366 224 400 232T460 252T490 282Q495 296 504 296Q509 296 509 288Q509 261 489 241T438 208T377 187T325 180Q317 180 308 162T290 116T274 59T262 6T255 -25V-28Q247 -36 232 -36ZM296
223Q314 272 332 317T364 396T385 446Q370 430 336 403T259 344T178 284T112 238H118L131 239H137Q178 239 220 233T296 223Z" />
<glyph unicode="5" glyph-name="five" horiz-adv-x="546" d="M167 -29Q141 -29 112 -25T57 -10T15 24T-2 84Q-2 102 5 121T30 141Q38 141 44 137T50 124Q50 115 47 104T44 84Q46 51 66 31T114 3T165 -6Q213 -6 262 13T354 66T422 146T448 246Q448 280 432 300T389
330T333 340Q296 340 267 328T216 301T178 273T151 261Q142 261 142 270Q142 281 153 303T181 352T216 405T248 450T268 477Q264 485 260 493T255 509Q255 522 281 527T351 534T441 535H472Q500 535 529 534T577 530T597 517Q597 512 591 508T572 503Q542 503 503
503T425 500T356 493T311 481Q305 477 289 454T253 400T217 337Q240 352 277 357T345 362Q373 362 403 357T458 339T500 302T516 242Q516 180 483 130T398 45T284 -10T167 -29Z" />
<glyph unicode="6" glyph-name="six" horiz-adv-x="516" d="M215 -18Q159 -18 125 3T75 59T60 137Q60 201 84 261T147 371T232 460T324 520T404 541Q429 541 453 532T493 502T509 441Q509 431 508 416T494 401Q486 401 486 406V412L487 424Q487 513 399 513Q370
513 334 493T260 435T193 350T143 245T124 129Q124 79 148 43T234 7Q280 7 314 34T368 101T393 181Q395 186 395 192T395 203Q395 236 382 255T348 283T306 292Q281 292 261 280T223 254Q220 250 214 250Q208 250 208 255Q208 267 227 280T272 303T321 312Q352
312 380 302T428 268T447 205Q447 161 427 121T373 49T298 0T215 -18Z" />
<glyph unicode="7" glyph-name="seven" horiz-adv-x="416" d="M127 -10Q108 -10 108 0Q108 10 130 44T189 126T269 228T354 332T430 422T481 479Q436 487 387 490T287 493Q207 493 172 470T126 408Q124 396 116 396Q108 396 108 407Q119 463 141 490T198 526T285
535Q293 535 316 534T370 530T430 525T483 520T513 516Q520 526 533 536T557 546Q569 546 569 526Q569 510 555 502T528 481Q457 403 396 327T280 171T174 2Q168 -2 154 -6T127 -10Z" />
<glyph unicode="8" glyph-name="eight" horiz-adv-x="490" d="M147 -11Q121 -11 95 -6T51 15T34 62Q34 101 55 136T110 200T182 253T255 291Q221 303 195 325T169 392Q169 433 190 464T245 516T319 547T399 558Q452 558 481 539T511 486Q511 445 485 414T423 359T353
318Q390 302 417 276T444 208Q444 168 424 134T369 74T296 28T217 -1T147 -11ZM332 327Q351 336 375 349T421 379T457 416T472 459Q472 496 442 514T369 532Q335 532 300 519T241 481T217 418Q217 392 234 376T275 349T322 330L332 327ZM181 27Q241 27 290 50T369
108T399 180Q399 217 371 238T278 283Q246 268 211 247T144 200T93 146T73 90Q73 66 89 52T129 33T181 27Z" />
<glyph unicode="9" glyph-name="nine" horiz-adv-x="497" d="M146 -15Q121 -15 97 -6T57 25T41 87Q41 95 42 111T55 127Q64 127 64 121V115L62 102Q62 13 151 13Q182 13 219 34T292 92T359 179T408 284T427 398Q427 448 403 484T316 521Q280 521 251 503T200 456T168
392T157 324Q157 276 185 256T244 236Q269 236 288 248T327 274Q330 278 337 278Q344 278 344 272Q344 261 325 248T279 225T229 216Q199 216 170 226T122 259T103 323Q103 367 123 407T176 478T251 527T336 546Q392 546 426 525T475 469T490 391Q490 326 466 266T403
154T317 65T226 6T146 -15Z" />
<glyph unicode=":" glyph-name="colon" horiz-adv-x="161" d="M178 159Q168 159 157 161T145 175Q145 178 156 189T180 210T199 220Q206 220 206 212T206 196Q206 192 201 183T190 167T178 159ZM127 0Q117 0 106 2T94 16Q94 21 105 31T129 51T148 61Q155 61 155
54T154 39Q154 35 149 26T138 8T127 0Z" />
<glyph unicode=";" glyph-name="semicolon" horiz-adv-x="166" d="M178 159Q168 159 157 161T145 175Q145 178 156 189T180 210T199 220Q206 220 206 212T206 196Q206 192 201 183T190 167T178 159ZM45 -119Q42 -121 39 -121Q35 -121 35 -118T34 -113Q34 -112
40 -104T56 -85Q70 -68 82 -50T101 -9Q105 0 105 8Q105 18 101 22T96 35Q96 41 97 44Q100 53 110 53T125 53Q137 53 144 42T151 21Q151 11 138 -9T107 -52T71 -94T45 -119Z" />
<glyph unicode="&lt;" glyph-name="less" horiz-adv-x="379" d="M227 29Q219 29 209 45Q184 83 156 117T95 183Q78 200 78 209Q78 216 84 222T102 239Q166 299 230 361T361 479Q365 483 370 483Q377 483 377 475Q377 471 373 463T358 442Q335 414 282 360T149
231Q181 173 202 131T232 69Q236 57 236 46Q236 29 227 29Z" />
<glyph unicode="=" glyph-name="equal" horiz-adv-x="538" d="M182 239Q162 239 162 250Q162 258 172 267T193 276Q200 276 227 276T293 276T370 277T441 277T484 277Q509 277 523 274T538 265Q538 259 527 256T502 251T484 249Q470 248 437 247T362 244T282 241T215
240T182 239ZM158 96Q135 95 135 107Q135 115 145 124T166 134H457Q481 134 495 131T510 121Q511 115 499 112T475 108T458 106Q444 105 413 104T342 101T264 99T197 98T158 96Z" />
<glyph unicode="&gt;" glyph-name="greater" horiz-adv-x="397" d="M89 30Q82 30 82 38Q82 50 100 72Q123 99 176 153T308 282Q277 340 256 382T227 446Q221 460 221 469Q221 485 231 485Q239 485 251 469Q275 429 302 396T363 329Q381 311 381 304Q381 297 374
291T356 274Q292 213 229 152T97 34Q91 30 89 30Z" />
<glyph unicode="?" glyph-name="question" horiz-adv-x="472" d="M185 143Q175 143 176 154Q180 184 210 215T274 276Q310 307 336 334T377 396T392 482Q392 517 373 541T322 566Q288 566 256 545T198 501Q187 490 174 471T148 437T129 422Q123 422 123 441Q123
476 136 507T189 543Q198 544 208 548T225 557Q248 568 277 575T335 583Q376 583 409 565T453 499Q455 491 456 483T457 467Q457 420 431 381T366 310T294 254Q260 230 232 205T197 152Q196 143 185 143ZM127 0Q117 0 106 2T94 16Q94 21 105 31T129 51T148 61Q155
61 155 54T154 39Q154 35 149 26T138 8T127 0Z" />
<glyph unicode="@" glyph-name="at" horiz-adv-x="767" d="M320 -158Q221 -158 156 -126T60 -41T28 72Q28 138 53 200T124 314T227 407T353 469T490 491Q564 491 617 467T698 402T727 305Q727 271 714 234T682 161T642 99Q616 62 582 35T501 7Q482 7 467 15T444
47Q441 56 441 71Q441 94 447 124T462 176Q456 173 442 157T407 117T362 72T311 35T260 20Q244 20 225 29T194 55Q179 75 179 98Q179 127 198 157T248 217T314 270T380 311T432 333Q443 335 454 337T478 339Q491 339 509 335T541 322T555 295Q555 286 548 290Q540
304 526 307T497 311Q456 311 406 284T316 220Q307 211 292 194T261 154T236 110T225 69Q225 55 232 45Q237 39 246 39Q261 39 284 54T334 92T381 134T413 165Q419 171 434 188T466 224T498 257T515 271Q520 271 532 269T553 261T557 245Q536 214 522 181T500 121T493
79Q493 50 508 40Q516 34 522 34Q538 34 556 47T591 76T613 100Q647 141 668 194T690 300Q690 371 634 414T483 458Q409 458 338 427T208 340T114 214T79 63Q79 8 103 -38T181 -112T321 -140Q360 -140 405 -129T495 -97T579 -51T644 3Q688 49 706 88T725 154Q725
176 713 188Q709 191 709 194Q709 199 716 199Q720 199 724 196Q751 171 751 125Q751 94 735 56T681 -20Q651 -51 608 -76T514 -119T413 -148T320 -158Z" />
<glyph unicode="A" glyph-name="A" horiz-adv-x="847" d="M142 -83Q109 -83 79 -72T30 -37T11 24Q11 33 15 40T24 48Q32 48 32 24Q32 -10 61 -29Q84 -44 123 -44Q162 -44 204 -30T284 10Q329 40 384 96T500 220Q452 225 405 231T309 237Q277 237 245 231T187 206T148
153Q147 149 146 144T144 134Q144 124 149 116Q151 110 151 109Q151 100 143 100Q136 100 132 107Q122 125 122 153Q122 206 141 234T194 272T265 282Q282 282 300 281T337 277Q381 273 428 264T522 244Q574 305 624 367T719 484T794 580Q795 583 798 584Q800 586
801 586Q812 592 829 596T852 601Q862 601 862 590Q862 587 857 579Q807 494 772 405T709 222L707 215Q713 215 719 215T731 214Q774 211 804 223Q826 231 834 246Q837 250 839 250Q844 250 846 245T845 234Q834 215 806 206Q790 199 770 197T727 196H721L709 197H703Q688
142 682 83Q681 78 681 74T681 64Q681 7 712 7Q732 7 759 25T815 69T867 120T901 161Q903 163 907 163Q917 163 913 152Q911 149 896 129T855 80T794 23Q766 1 739 -5T697 -12Q669 -12 653 13T636 79Q636 108 642 139T656 201Q627 204 597 207T537 215Q477 142
418 79T306 -24Q267 -52 226 -67T142 -83ZM660 220Q678 290 702 360T751 489L756 501Q713 441 662 373T557 238Q583 233 609 229T660 220Z" />
<glyph unicode="B" glyph-name="B" horiz-adv-x="653" d="M373 -61Q316 -61 278 -39T233 29V35Q225 24 215 9T193 -16T169 -27Q167 -27 158 -25T140 -20T130 -13Q127 6 139 41T172 120T215 206T257 283T284 336Q290 347 292 354T294 366Q294 372 292 376Q294 388
306 408T338 448T379 481T420 495Q426 495 438 492T462 481T477 461Q478 458 478 455Q478 452 476 452Q474 452 471 453T465 455Q442 455 415 433T360 374T304 293T253 205T210 123T182 62Q174 40 174 31Q174 17 185 17Q199 17 215 36Q226 49 235 60T252 70Q266
70 271 63T277 45T279 27Q286 -4 311 -24T383 -45Q432 -45 471 -29T533 15T556 80Q556 105 544 132T506 188Q484 214 457 237T411 279T391 313Q391 325 407 334T433 344Q456 344 491 353T565 377T634 412T681 450Q690 461 695 473T701 498Q701 517 685 532T629
555Q618 558 603 559T571 560Q520 560 453 551T317 523T188 478T90 416T46 337Q44 312 58 299T91 280T121 267Q130 263 130 259Q130 254 119 254Q107 254 89 260T54 278T25 309T17 351Q17 353 16 358T15 367Q18 399 42 428T100 481T163 521Q195 538 240 552T336
578T441 595T540 602Q589 602 626 594Q676 583 703 555T730 493Q729 456 708 429T652 382T579 351T501 332T435 325Q477 300 518 270T587 203T615 124Q615 100 605 75T571 20Q541 -17 488 -39T373 -61Z" />
<glyph unicode="C" glyph-name="C" horiz-adv-x="534" d="M211 -46Q159 -46 116 -29T47 25T21 119Q21 151 30 188Q44 247 76 306T154 417T254 509T365 573T480 597Q497 597 515 594Q555 587 574 565T594 513Q594 479 572 445T515 381T438 326T356 287T285 270Q266
269 266 281Q266 287 272 293T291 301Q369 308 436 348T540 459Q548 474 552 489T557 519Q557 541 545 556T501 572Q467 572 421 552T325 494T226 407T139 297T79 171Q66 131 66 97Q66 36 108 8T217 -21Q275 -21 344 -1T480 60T591 166Q594 170 598 170Q602 170
605 166T606 158Q554 86 487 41T347 -25T211 -46Z" />
<glyph unicode="D" glyph-name="D" horiz-adv-x="868" d="M239 -63Q220 -63 209 -51T191 -23T183 8T181 29Q181 62 183 86T189 136V140Q189 146 187 151T182 164Q182 166 182 167T181 169Q181 176 188 183Q194 188 204 191T223 195Q227 195 231 193Q233 191 233
189Q233 182 228 172Q223 159 222 157T221 140Q221 132 231 119T254 94T277 72T290 63Q296 79 309 107T337 169T367 232T392 284Q397 295 399 303T401 315Q401 319 400 321T398 325Q400 337 417 362T460 415T511 462T557 481Q563 481 576 478T601 466T615 444V440Q615
438 614 438Q613 438 610 440T603 442Q580 442 553 420T498 360T442 277T391 187T349 105T319 44Q351 20 387 10T460 -1Q520 -1 579 22T689 81T776 161Q818 211 839 264T861 366Q861 422 833 466T748 537T601 564Q537 564 469 551T338 513T225 457T145 386T115
307Q115 282 131 270T167 251T198 239Q206 236 206 232Q206 226 195 226Q183 226 163 232T123 250T91 279T81 321Q81 323 80 328T79 337Q79 385 107 424T183 493T293 543T423 573T557 583Q616 583 677 574T791 539T874 467T906 348Q906 268 871 200T775 82T642
3T492 -25Q441 -25 394 -13T311 27Q309 24 302 10T284 -21T262 -50T239 -63ZM235 -33Q243 -33 252 -17T268 18T277 41Q266 50 248 70T216 102Q216 92 216 57T223 -13Q227 -33 235 -33Z" />
<glyph unicode="E" glyph-name="E" horiz-adv-x="716" d="M251 -62Q209 -62 169 -55T96 -32T44 14T24 90Q24 140 48 174T111 230T195 264T284 281T361 288Q331 323 307 376T283 479Q283 497 287 514T300 546Q310 564 332 576T380 596T428 603Q465 603 489 584T534
544Q539 539 546 533T563 523Q567 522 572 522T582 518Q590 511 596 497T607 472Q613 456 613 430Q613 410 609 393T595 376Q590 376 582 385Q570 399 565 422T550 465Q538 491 524 513T490 551Q482 560 467 569T431 578Q416 578 406 573Q371 559 357 527T342 457Q342
411 357 366T391 296Q396 290 415 289T443 285Q459 284 466 278T473 265Q473 254 460 246Q455 241 443 241Q426 241 405 247T370 257Q340 256 301 247T222 222T147 181T91 127T68 60Q67 20 99 -9T216 -38Q256 -38 302 -31T392 -13T475 12T537 38Q556 47 583 65T636
108T680 157T698 207Q698 209 698 212T697 217Q696 221 701 221T708 219Q722 199 722 175Q722 143 700 112T646 56T589 17Q558 -1 515 -15T424 -40T331 -56T251 -62Z" />
<glyph unicode="F" glyph-name="F" horiz-adv-x="529" d="M90 294Q75 298 56 310T23 342T9 386Q9 397 13 408Q13 409 13 415T15 425Q26 475 66 507T164 558T285 580Q298 581 310 581T333 582Q396 582 448 574T551 556T662 545Q675 561 687 568T707 577Q710 578
715 578Q725 578 733 573T741 560Q741 553 733 545Q726 538 713 529T686 506Q668 489 654 468T639 425Q639 409 647 398Q648 397 648 395Q648 388 640 388Q634 388 628 395Q619 406 619 438Q619 455 623 474T635 509Q639 515 642 520T649 531Q576 528 506 536T365
545Q325 545 273 537T171 512T85 464T39 388Q38 384 38 381T37 375Q37 356 48 343T75 322T98 306Q105 302 105 298Q105 294 101 293T90 294ZM189 -27Q186 -27 177 -25T160 -20T151 -13Q149 7 161 44T195 126T240 214Q213 211 199 211Q191 211 183 218T174 237Q174
247 185 254T209 266T229 270Q242 270 247 261T257 251H261Q276 279 287 301T306 336Q314 353 314 364Q314 369 314 371T312 376Q314 388 327 408T359 448T399 481T441 495Q447 495 462 491T489 476T499 450Q492 455 487 455Q460 455 428 426T363 351T300 252Q317
254 334 256T368 261Q404 266 442 271T516 276Q522 276 529 275T536 269Q536 267 532 264T515 255Q499 249 459 242T371 229T279 217Q254 170 234 129T204 62Q200 52 198 44T196 31Q196 17 206 17Q213 17 221 22T236 36Q247 49 256 60T272 70Q273 69 273 67Q273
61 267 53T260 44Q252 34 241 17T216 -13T189 -27Z" />
<glyph unicode="G" glyph-name="G" horiz-adv-x="798" d="M282 -370Q246 -370 225 -350T203 -296Q203 -269 218 -236T266 -165Q334 -87 417 -37T597 44Q611 82 623 121T647 201Q598 155 539 110T414 34T277 3Q225 3 179 22T103 82T74 185Q74 340 212 464Q292 537
386 569T586 602Q598 602 620 600T667 590T709 569T730 534Q731 530 731 527T731 521Q731 509 727 503T718 497Q708 497 708 513Q706 540 691 554T653 574T607 579Q570 579 519 564T410 521T298 456T197 374T125 280T98 181Q98 112 143 82T259 51Q327 51 403 75Q460
92 501 117T579 176T658 250Q676 296 705 309T759 322Q773 322 784 320T799 318Q807 317 807 312Q807 303 795 305Q764 307 741 277T704 204Q691 169 679 132T653 58Q704 72 729 72Q741 72 745 69Q749 66 749 61Q749 52 742 55Q736 57 729 57Q716 57 696 53T660
41T640 24Q597 -85 549 -160T453 -281T360 -349T282 -370ZM310 -344Q347 -344 383 -316T452 -242T513 -146T561 -49T591 25Q509 -2 439 -47T314 -160Q284 -197 271 -229T257 -286Q257 -313 271 -328T310 -344Z" />
<glyph unicode="H" glyph-name="H" horiz-adv-x="750" d="M-3 -134Q-34 -134 -58 -119T-91 -72Q-92 -70 -92 -67T-92 -62Q-92 -47 -85 -47Q-79 -47 -74 -66Q-65 -91 -45 -98T-1 -106Q42 -106 82 -79T156 -7T219 89T269 187T303 268Q290 270 277 270T251 272Q244
272 238 272T225 273Q193 273 162 267T106 243T69 191Q64 179 64 170Q64 162 69 152Q72 148 72 144Q72 136 62 136Q55 136 51 143Q46 154 43 170T41 205Q45 251 65 275T117 309T185 318Q218 318 251 314T317 305Q334 350 348 394T374 477Q346 451 311 438T244 421H243Q234
421 234 428Q234 437 246 438Q275 441 305 460T361 510T403 577Q405 582 417 585T441 589Q452 589 460 586T466 577Q447 529 419 455T356 297Q417 285 478 271T596 250Q616 293 637 336T675 424Q680 434 681 441T682 452Q682 457 682 459T680 464Q681 476 692 496T721
536T760 569T800 583Q806 583 821 579T849 565T861 539Q858 540 855 542T849 544Q827 544 802 520T752 458T705 379T665 302T639 246Q656 246 679 249T723 259T754 282Q757 286 760 286Q764 286 766 282T764 271Q752 252 728 243T678 231T631 228Q621 204 610 172T592
108T584 51Q584 32 590 20T613 7Q634 7 662 24T717 68T768 119T804 161Q806 163 810 163Q813 163 815 161T816 152Q814 148 797 125T750 70Q722 38 684 13T601 -12Q567 -12 554 9T541 59Q541 91 551 126T568 180Q573 193 578 205T589 231Q526 236 465 246T342 263Q325
226 301 175T244 70T174 -30T91 -105T-3 -134Z" />
<glyph unicode="I" glyph-name="I" horiz-adv-x="430" d="M52 -9Q31 -9 20 -6T8 11Q8 16 9 21T13 34Q18 45 30 50T52 56Q62 56 70 51Q84 41 103 34T143 26Q167 26 192 37T239 80Q269 119 295 177T342 301T381 427T409 534Q357 530 308 517T228 479T196 418Q196
398 207 386T232 366T256 354Q263 350 263 347Q263 341 254 345Q242 348 224 358T191 387T175 428Q175 430 174 434T172 441Q170 479 191 505T249 547T330 571T420 579L424 589Q426 594 435 597T455 601Q465 601 471 598T478 590Q478 585 473 577Q506 574 533 567T580
550Q587 547 596 538T606 522Q606 517 598 517Q594 517 588 518T574 522Q555 529 525 532T459 535Q444 489 424 426T378 296T322 167T259 63Q249 53 240 43T221 25Q276 24 321 26T398 29H404Q415 29 415 24Q415 19 409 13T399 5Q394 3 365 1T292 -3T201 -6T114
-8T52 -9Z" />
<glyph unicode="J" glyph-name="J" horiz-adv-x="573" d="M118 -105Q80 -105 57 -84T34 -26Q34 0 48 33T95 103Q163 182 246 231T427 311Q436 335 447 374T475 456T510 535Q465 537 415 532T321 513T249 476T221 418Q221 398 232 386T258 366T281 354Q288 350
288 347Q288 342 278 345Q245 352 221 379T197 441Q195 479 216 505T273 547T354 571T445 579Q470 579 493 578T537 572Q548 585 561 593T588 601Q599 601 599 594Q599 586 588 584Q574 582 560 567Q573 563 584 559T606 550Q612 547 621 537T631 522Q631 517 624
517Q620 517 614 518T599 522Q575 530 540 533Q529 505 518 468T498 394T478 325Q529 339 558 339Q570 339 574 336Q578 333 578 328Q578 319 571 322Q565 324 557 324Q543 324 524 320T490 309T470 291Q430 182 384 106T289 -16T197 -84T118 -105ZM138 -77Q175
-77 211 -49T281 25T342 121T390 218T420 292Q338 265 268 220T143 107Q113 70 100 38T86 -19Q86 -46 100 -61T138 -77Z" />
<glyph unicode="K" glyph-name="K" horiz-adv-x="558" d="M-137 -134Q-168 -134 -191 -119T-225 -72Q-225 -70 -225 -68T-226 -64Q-226 -57 -224 -52T-219 -47Q-212 -47 -208 -66Q-198 -91 -178 -98T-133 -106Q-125 -106 -117 -105T-102 -102Q-57 -88 -18 -52T56
36T118 147T170 267T210 382T240 477Q212 451 177 438T112 421H111Q100 421 100 429Q100 437 112 438Q141 441 171 460T227 510T270 577Q272 582 283 585T307 589Q318 589 326 586T333 577Q293 480 256 380T171 183Q191 208 212 232T261 285V298Q261 306 261 312T262
324Q264 329 268 336T276 343Q280 343 283 330Q283 326 283 323T285 316L287 318Q296 327 321 349T380 401T453 462T525 522T584 570T617 593Q632 601 644 604T666 607Q682 607 689 601T697 585Q697 567 674 555Q644 541 603 518T517 466T429 407T350 347T292 294Q307
241 321 203T355 131T410 53Q433 26 457 10T500 -6Q517 -6 523 1T530 20Q530 34 523 49T509 74Q504 82 504 85Q504 89 509 89Q519 89 528 80Q533 75 541 58T550 28Q550 8 536 -6T504 -26T473 -33Q426 -33 391 -6T331 64T290 159T265 260Q222 210 180 159T112 73Q93
41 67 5T10 -62T-58 -114T-137 -134Z" />
<glyph unicode="L" glyph-name="L" horiz-adv-x="412" d="M594 -164Q552 -164 508 -153T424 -126T356 -100Q303 -81 257 -63T192 -41Q95 -16 55 -16Q48 -21 42 -24T29 -29Q26 -30 20 -30Q2 -30 2 -18Q2 -11 13 -4Q21 0 31 0T53 2Q76 22 96 53T126 100Q134 114
141 127T157 154Q141 150 124 147T91 143Q62 143 39 155T15 199Q15 220 33 238T72 256Q84 256 84 246Q84 240 75 240Q64 240 55 227T46 200Q46 190 52 181T75 169Q90 166 107 166Q136 166 166 174Q180 202 192 229T217 284Q242 339 268 391T319 484T364 545Q402
581 440 596T510 611Q516 611 522 611T533 609Q570 603 585 584T600 537Q600 523 597 508Q584 445 545 390T449 291T330 215T206 170Q193 148 179 127T147 84Q137 69 118 46T79 2Q93 1 109 0T145 -5Q228 -18 311 -43T477 -90Q500 -96 542 -105T622 -114Q658 -114
677 -101Q692 -92 692 -76Q692 -64 681 -56Q675 -51 675 -48Q675 -38 687 -45Q700 -54 705 -66T711 -91Q711 -106 706 -118T692 -136Q651 -164 594 -164ZM221 193Q332 241 416 310T549 492Q565 527 565 553Q565 574 552 586Q545 595 529 595Q496 595 461 572Q431
550 405 514T355 438T315 363T285 306Q277 290 261 259T221 193Z" />
<glyph unicode="M" glyph-name="M" horiz-adv-x="1095" d="M41 -77Q19 -77 5 -63T-9 -24Q-9 -10 -4 7T15 45Q38 81 74 125T152 214T229 294T288 351Q298 381 307 413T327 479Q299 453 264 440T197 425H196Q186 425 186 432Q186 440 198 441Q227 444 258 463T315
513T356 579Q358 585 369 588T394 591Q405 591 413 589T420 579Q402 533 385 491T352 408Q411 458 462 491T546 527Q603 530 635 508T681 450T695 372Q695 362 695 353T693 335Q688 289 673 230T641 120Q639 115 635 103T634 90Q635 90 644 103Q669 144 692 183T743
265Q783 327 830 390T926 503Q945 523 965 533T1004 543Q1024 543 1037 530T1051 488Q1051 481 1050 473T1046 454Q1034 406 1018 366T986 288T958 207T940 114Q939 105 939 97T938 82Q938 48 948 33T974 17Q993 17 1018 33T1070 74T1117 122T1148 160Q1150 163
1154 163Q1158 163 1161 160T1161 152Q1148 132 1125 106T1076 55T1030 15Q1015 4 996 -3T957 -10Q935 -10 917 1T892 39Q889 49 888 60T887 83Q887 125 899 176T929 279T963 373T989 441Q996 455 996 467Q996 488 978 488Q963 488 943 471Q914 446 880 406T810
318T741 220T680 123T635 40Q628 25 619 25Q612 25 606 34T596 53T594 68Q607 100 618 146T636 245T643 346Q643 410 627 454T571 499Q545 499 505 477T419 418T323 336Q314 314 297 272T256 179T204 78T145 -11Q118 -45 91 -61T41 -77ZM46 -42Q72 -42 99 -15T154
55T205 144T244 229T268 287Q240 260 209 228T149 162T95 99T57 51Q41 29 34 12T26 -19Q26 -42 46 -42Z" />
<glyph unicode="N" glyph-name="N" horiz-adv-x="784" d="M-88 -129Q-105 -129 -120 -125Q-161 -111 -171 -69Q-172 -66 -172 -60Q-172 -46 -166 -46Q-161 -46 -154 -64Q-147 -92 -120 -98Q-114 -100 -105 -101T-88 -102Q-51 -102 -18 -81T44 -28T96 39T134 102Q178
186 208 272T266 453Q237 427 202 414T136 398H135Q125 398 125 405Q125 413 137 415Q166 420 197 439T254 489T295 554Q297 560 309 563T333 567Q344 567 352 564T359 554Q355 543 353 520T348 483Q345 465 345 431Q345 388 350 330T366 211T396 97T439 12T499
-21Q534 -21 565 13T621 102T664 221T691 347T701 455Q701 480 698 498Q694 525 687 544T671 585V586Q671 590 679 596T691 604Q706 604 718 590T742 556T764 515T788 483Q796 476 800 474T815 472L821 475Q829 475 832 474T836 464Q836 456 829 451T813 444Q800
444 780 457T750 479Q751 473 751 467T751 455Q751 400 737 333T699 197T642 72T571 -20T492 -55Q444 -55 411 -26T355 52T319 160T301 280T296 395Q265 314 235 242T164 97Q146 64 121 26T63 -48T-7 -106T-88 -129Z" />
<glyph unicode="O" glyph-name="O" horiz-adv-x="705" d="M316 -72Q246 -72 198 -37T124 53T99 173Q99 237 125 300T205 411T341 478Q352 480 363 481T387 483Q409 483 430 477T466 455Q477 445 477 441T475 437Q472 437 468 440T458 444Q440 451 418 451Q412
451 407 451T396 449Q337 435 291 401T212 320T162 222T145 122Q145 75 162 36T214 -26T305 -49Q320 -49 337 -47T373 -41Q413 -32 454 -3T534 70T601 165T648 272T666 379Q666 479 611 528T461 578Q399 578 338 556T232 501Q187 470 151 428T91 338T63 242Q63
231 58 231Q54 231 50 240T46 260Q46 316 69 367T133 461T224 535T330 584T439 602Q519 603 581 573T680 486T716 348Q716 269 687 200T609 77T502 -14T385 -63Q366 -68 350 -70T316 -72Z" />
<glyph unicode="P" glyph-name="P" horiz-adv-x="538" d="M169 -27Q167 -27 158 -25T140 -20T130 -13Q128 6 140 41T172 119T215 205Q211 205 207 205T197 206Q185 208 185 217Q185 222 196 222Q204 222 210 222T223 221Q243 259 260 289T284 336Q290 347 292
354T294 366Q294 372 292 376Q294 388 306 408T338 448T379 481T420 495Q426 495 438 492T463 481T478 461Q479 459 479 455Q479 452 476 452Q474 452 471 453T465 455Q443 455 418 435T365 380T312 305T261 221Q311 223 367 233T478 262T580 306T659 365Q694 402
694 441Q694 470 672 495T603 533Q575 541 540 545T463 549Q399 549 332 538T205 505T106 448T58 367Q55 343 67 329T96 308T124 294Q131 288 131 284Q131 277 118 279Q104 282 84 293T48 323T32 369Q32 373 32 377T34 385Q34 386 34 391T33 401Q39 432 63 459T119
508T178 543Q225 566 291 579T429 593Q473 593 516 587T601 568Q658 549 689 510T718 427Q715 386 690 353T625 296T538 254T442 225Q396 215 345 210T252 204Q228 161 210 123T182 62Q174 40 174 31Q174 17 185 17Q199 17 215 36Q226 49 235 60T252 70Q253 69
253 67Q253 62 246 54T238 44Q231 34 220 17T196 -13T169 -27Z" />
<glyph unicode="Q" glyph-name="Q" horiz-adv-x="669" d="M824 -214Q817 -215 810 -215T796 -215Q735 -215 681 -197T579 -150T487 -89T403 -29Q382 -34 362 -37T320 -40Q241 -40 179 -11T81 73T45 205Q45 281 74 347T152 467T259 555T376 603Q393 607 409 609T441
611Q503 611 544 584T605 510T625 408Q625 359 610 308T564 209Q514 130 448 91T317 41Q322 39 331 36T344 30Q357 23 370 15T397 -2Q468 20 526 72T625 194T685 339Q699 393 699 441Q699 498 677 539T602 584Q586 585 586 592Q586 596 592 599T607 601Q679 590
708 536T733 407Q730 344 705 279T639 153T543 48T426 -21Q476 -53 531 -85T647 -140T772 -162Q780 -162 787 -162T802 -161Q828 -159 856 -149T905 -120T926 -74Q926 -57 916 -38Q913 -33 913 -30Q913 -23 920 -23Q930 -23 935 -34Q946 -55 949 -75T951 -114Q950
-149 917 -179T824 -214ZM325 -16Q338 -15 350 -13T374 -9Q334 19 297 32Q286 29 265 23T231 18Q218 20 212 27T206 43Q206 51 213 59T233 68Q241 68 263 65T307 61Q369 79 420 121T508 218T566 333T587 445Q587 507 555 548T452 590Q439 590 423 588T390 582Q349
572 308 544T228 473T160 381T113 279T95 176Q95 82 150 33T296 -17Q304 -17 311 -17T325 -16Z" />
<glyph unicode="R" glyph-name="R" horiz-adv-x="538" d="M717 -182Q707 -182 697 -181T676 -178Q608 -165 553 -133T455 -59T376 31T311 121T257 198Q255 203 253 201T250 199Q228 157 210 121T182 62Q174 40 174 31Q174 17 185 17Q199 17 215 36Q226 49 235
60T252 70Q253 69 253 67Q253 62 246 54T238 44Q231 34 220 17T196 -13T169 -27Q167 -27 158 -25T140 -20T130 -13Q128 6 139 40T171 117T212 199Q196 203 189 206Q179 213 179 225Q179 235 187 243T211 251Q216 251 223 249T234 242Q251 272 264 297T284 336Q290
347 292 354T294 366Q294 372 292 376Q294 388 306 408T338 448T379 481T420 495Q426 495 438 492T462 481T477 461Q478 458 478 455Q478 452 476 452Q474 452 471 453T465 455Q437 455 403 422T333 336T266 228Q271 227 277 226T293 224Q297 224 300 224T308 225Q372
232 438 250T563 297T659 365Q694 402 694 441Q694 470 672 495T603 533Q575 541 540 545T463 549Q399 549 332 538T205 505T106 448T58 367Q55 343 67 329T96 308T124 294Q131 288 131 284Q131 277 118 279Q104 282 84 293T48 323T32 369Q32 373 32 377T34 385Q34
386 34 391T33 401Q39 432 63 459T119 508T178 543Q225 566 291 579T429 593Q473 593 516 587T601 568Q658 549 689 510T718 427Q715 386 690 353T625 296T538 254T442 225Q403 217 360 212T279 205Q322 152 364 99T455 -2T562 -82T693 -130Q708 -133 724 -133Q750
-133 775 -125T818 -100T835 -55Q835 -50 835 -45T833 -35Q833 -33 833 -32T832 -30Q832 -21 839 -21Q849 -21 852 -36Q855 -51 855 -64Q855 -79 853 -92T846 -116Q837 -144 801 -163T717 -182Z" />
<glyph unicode="S" glyph-name="S" horiz-adv-x="591" d="M163 -34Q93 -34 53 -11T13 56Q13 100 39 137T106 202T193 245T278 261Q298 261 298 255Q298 246 277 246Q240 246 197 228T119 178Q92 154 79 130T65 84Q65 53 94 33T181 12Q215 12 250 17T313 30T357
41Q394 53 431 70T499 108T543 152Q551 164 554 175T558 196Q558 224 533 243T469 279T386 309T303 340T239 376T214 426Q214 459 238 485T301 532T384 566T468 587T534 594Q644 594 644 539Q644 517 626 488Q618 473 603 460T580 446Q574 446 574 453Q574 456
585 465T607 489T618 517Q618 538 595 549T533 560Q515 560 481 555T407 537T330 505Q261 467 261 440Q261 420 300 402Q329 389 367 375T444 345T516 309T570 265T591 209Q591 167 545 123Q509 89 462 60T362 10T258 -22T163 -34Z" />
<glyph unicode="T" glyph-name="T" horiz-adv-x="336" d="M90 294Q75 298 56 310T23 342T9 386Q9 397 13 408Q13 409 13 415T15 425Q26 475 66 507T164 558T285 580Q297 581 309 581T333 581Q403 581 472 572T597 555T687 545Q715 574 728 577Q731 578 737 578Q748
578 757 573T766 557Q766 548 758 540Q751 533 736 523T707 498Q687 478 671 453T655 405Q655 388 663 376Q665 374 665 372Q665 364 657 364Q650 364 642 372Q634 382 634 415Q634 435 638 458T652 500Q656 507 663 516T675 531Q603 532 529 539T383 546Q349 546
307 542T221 527T139 499T74 453T39 388Q38 384 38 381T37 375Q37 356 48 343T75 322T98 306Q105 302 105 298Q105 294 101 293T90 294ZM189 -27Q186 -27 177 -25T160 -20T151 -13Q148 6 160 41T193 120T236 206T278 283T306 336Q314 353 314 364Q314 369 314 371T312
376Q314 388 327 408T359 448T399 481T441 495Q447 495 462 491T489 476T499 450Q492 455 487 455Q464 455 437 433T382 374T326 293T274 205T232 123T204 62Q200 52 198 44T196 31Q196 17 206 17Q213 17 221 22T236 36Q247 49 256 60T272 70Q273 69 273 67Q273
61 267 53T260 44Q252 34 241 17T216 -13T189 -27Z" />
<glyph unicode="U" glyph-name="U" horiz-adv-x="526" d="M452 -188Q416 -188 398 -160T374 -91Q372 -76 371 -60T369 -25Q369 10 373 50T384 134Q346 97 302 62T210 3T114 -20Q89 -20 70 -5T45 45Q44 52 44 58T43 72Q43 116 58 164T95 260T141 356T181 443Q183
446 183 448T183 452Q183 456 180 456Q174 456 158 443Q124 415 88 395T21 373H20Q11 373 11 379Q11 388 24 390Q41 392 65 405T117 439T168 480T210 520T233 548Q235 553 247 557T272 561Q283 561 291 558T297 548Q290 537 271 505T226 427T175 329T130 227T102
135Q100 122 99 111T98 88Q98 48 112 32T147 15Q173 15 204 29T268 67T332 118T388 170Q398 235 412 297T443 411T476 495Q500 547 533 577T612 606Q646 603 659 585T672 543Q672 525 666 505Q653 461 626 417T564 329T496 246T435 171Q430 144 426 110T419 42T416
-15Q416 -112 449 -153Q461 -168 477 -168Q489 -168 498 -158Q502 -150 510 -142Q516 -136 520 -136Q527 -136 524 -149Q523 -153 520 -158T511 -169Q504 -178 486 -183T452 -188ZM450 234Q486 268 523 317T591 420T635 522Q637 530 638 537T639 551Q639 580 621
580Q606 580 584 557Q529 496 500 414T450 234Z" />
<glyph unicode="V" glyph-name="V" horiz-adv-x="613" d="M211 -58Q158 -58 137 -38T116 16Q116 47 130 86Q151 145 178 208T231 333Q253 385 275 440T305 535Q261 535 216 528T131 507T69 471T45 418Q45 398 56 386T82 366T104 354Q112 349 112 346Q112 344 108
344Q100 344 80 354T42 384T24 428Q24 430 22 434T20 441Q18 479 39 505T98 547T180 571T271 579Q280 579 289 579T307 578Q306 585 302 590Q300 594 300 596Q300 604 309 604Q319 604 328 589Q332 582 333 575Q390 569 428 550Q436 547 446 538T456 522Q456 517
448 517Q444 517 438 518T424 522Q388 533 335 535Q333 492 318 434T279 321Q248 249 220 174T185 34Q184 30 184 26T184 18Q184 -9 195 -21T224 -33Q252 -33 291 -12T367 38Q435 89 483 148T577 278Q618 343 655 408T742 531Q754 547 775 564T821 593T872 605Q880
605 889 603T905 596Q912 592 910 589T905 585Q902 585 899 585T894 586Q872 586 842 557T773 480T691 371T597 248Q546 182 492 121T381 15Q338 -19 296 -38T211 -58Z" />
<glyph unicode="W" glyph-name="W" horiz-adv-x="975" d="M93 -79Q50 -79 32 -64T13 -23Q13 -3 23 22T49 74Q84 134 128 199T216 329Q239 364 264 400T312 471T348 534Q338 535 328 535T307 535Q264 535 218 529T133 508T69 472T45 417Q45 397 56 385T82 366T104
354Q112 349 112 346Q112 344 108 344Q100 344 80 354T42 384T24 428Q24 430 22 434T20 441Q18 479 39 505T96 547T178 571T268 579Q318 579 363 571Q364 575 364 578T365 584Q365 589 363 593Q362 595 362 598Q362 606 371 606Q376 606 381 603T390 590Q391 588
391 583Q391 575 388 566Q400 562 409 558T428 550Q436 547 446 538T456 522Q456 517 448 517Q444 517 438 518T424 522Q414 525 403 527T380 532Q364 489 332 431T263 317Q230 267 197 215T136 113T92 18Q88 5 86 -5T84 -24Q84 -56 115 -56Q142 -56 186 -35T276
17Q359 75 433 148T566 303Q565 315 565 328T564 357Q564 381 565 406T571 450Q572 458 580 471T600 496T621 507Q630 507 635 495T641 453Q641 424 636 386T612 310Q611 252 623 198T659 100T713 33T777 9Q815 10 845 36T898 107T933 205T945 311Q945 364 932
411T889 490Q857 524 807 524Q803 524 799 524T789 523Q764 520 745 505Q741 503 738 503Q726 503 726 513Q726 517 730 520Q785 558 838 558Q877 558 909 537Q950 511 968 460T987 348Q987 285 969 219T919 96T843 6T748 -29Q709 -29 674 -8T612 53T573 143T563
252Q531 212 487 167T394 79T301 4Q250 -32 199 -55T93 -79Z" />
<glyph unicode="X" glyph-name="X" horiz-adv-x="679" d="M-76 -144Q-128 -144 -172 -115Q-210 -88 -210 -38Q-210 -27 -206 -18T-196 -9Q-193 -9 -191 -16T-189 -40Q-189 -68 -163 -86Q-147 -96 -130 -100T-93 -104Q-49 -104 1 -84T104 -30T207 44T299 125T373
198Q357 252 349 309T341 424Q341 449 342 473T346 522Q347 527 348 533T351 544Q340 545 329 545T304 546Q260 546 214 540T129 519T66 483T42 428Q42 408 55 396T85 378T109 365Q114 363 114 360Q114 357 110 355T100 354Q88 358 70 369T36 398T21 438Q21 439
19 443T17 450Q15 488 36 514T94 557T176 581T266 589Q322 589 367 580Q376 592 388 594H389Q397 594 400 587T404 571Q410 569 415 567T426 562Q433 558 442 548T452 531Q452 527 445 527Q439 527 419 533Q415 534 410 535T399 538Q397 519 396 500T395 460Q395
355 421 254Q472 314 518 375T604 492T679 593Q683 598 690 598Q702 598 702 587Q702 583 699 578Q644 493 575 399T432 220Q438 201 450 169T481 105T520 50T566 27Q584 27 608 42T656 79T701 123T731 160Q734 163 738 163Q749 163 744 152Q738 141 719 117T674
66T625 23Q577 -13 540 -13Q512 -13 488 6T443 53T408 112T385 165Q354 131 313 90T224 8T125 -68T23 -123T-76 -144Z" />
<glyph unicode="Y" glyph-name="Y" horiz-adv-x="526" d="M87 -370Q51 -370 30 -350T8 -295Q8 -269 22 -236T70 -165Q138 -87 221 -37T402 44Q408 61 419 100T444 191T473 297Q434 237 389 181T297 79T203 7T114 -20Q89 -20 70 -5T45 45Q44 52 44 58T43 72Q43
116 58 164T95 260T141 356T181 443Q183 446 183 448T183 452Q183 456 180 456Q174 456 158 443Q124 415 88 395T21 373H20Q11 373 11 379Q11 388 24 390Q41 392 65 405T117 439T168 480T210 520T233 548Q235 553 247 557T272 561Q283 561 291 558T297 548Q290
537 271 505T226 426T175 329T130 227T102 135Q100 122 99 111T98 88Q98 48 112 32T147 15Q181 15 221 42T303 116T386 220T461 339T523 455Q531 472 536 486T549 513Q553 521 556 526T563 534Q575 554 597 561T641 569Q660 569 673 567T693 563Q703 562 703 554Q703
550 699 547T688 543Q649 547 625 518T578 432Q570 413 558 374T530 287T501 192T475 109T458 58Q508 72 535 72Q546 72 550 69Q553 66 553 62Q553 58 551 56T545 55Q541 57 533 57Q520 57 501 53T465 41T444 24Q387 -121 322 -207T195 -332T87 -370ZM115 -344Q152
-344 188 -316T257 -242T317 -146T365 -49T396 25Q314 -2 244 -47T119 -160Q88 -197 75 -229T62 -286Q62 -313 76 -328T115 -344Z" />
<glyph unicode="Z" glyph-name="Z" horiz-adv-x="523" d="M606 -199Q598 -200 590 -200T574 -201Q518 -201 465 -184T363 -139T268 -81T178 -25T94 16Q76 7 58 3T33 1Q11 9 11 31Q11 50 32 60Q38 62 55 58T94 51Q137 68 194 121T314 240Q286 239 263 238T229 238Q222
238 213 246T204 266Q204 275 214 282T237 292T257 296Q270 296 275 287T287 276Q292 275 297 275T307 275Q317 275 327 275T347 276Q393 326 438 373T523 457T593 510Q543 526 474 538T338 550Q311 550 286 548T238 539Q204 531 180 509T155 464Q155 456 158 450Q162
443 162 437Q162 431 158 431Q154 431 145 441Q131 458 131 479Q131 500 144 520T178 555T221 578Q250 588 282 592T348 596Q419 596 493 582T628 552Q635 560 650 570T684 589T716 597Q737 597 737 574Q737 552 722 535T684 509T641 499Q632 499 628 500Q594 481
557 446T482 368T403 279Q438 283 474 286T544 287Q552 286 559 284T566 278Q566 276 562 273T544 266Q532 263 505 259T443 252T372 244Q322 190 267 139T147 49H146Q138 42 138 34Q138 24 149 17Q214 -17 278 -56T408 -122T545 -149Q553 -149 561 -149T578 -147Q598
-144 619 -135T655 -110T670 -71Q670 -49 654 -23Q651 -17 651 -14Q651 -8 657 -8Q666 -8 670 -18Q683 -40 689 -60T698 -98Q698 -101 698 -104T699 -110Q699 -142 676 -168T606 -199Z" />
<glyph unicode="[" glyph-name="bracketleft" horiz-adv-x="447" d="M9 -130Q-7 -130 -12 -126T-18 -114Q-18 -102 -1 -64T46 28T112 147T187 275T261 398T323 499T364 562Q375 574 381 578T404 582H549Q557 582 559 580T562 575Q562 570 551 561T532 551Q494
547 466 546T409 545Q384 511 348 457T269 334T183 192T100 45T33 -94H164Q176 -94 176 -100Q176 -113 155 -119T105 -128T49 -130H9Z" />
<glyph unicode="\" glyph-name="backslash" horiz-adv-x="319" d="M293 -12Q286 -12 278 -7T267 7Q253 62 230 125T180 251T127 372T78 472T42 538Q41 539 41 541Q41 546 46 548T59 551Q78 551 84 541Q91 532 106 501T140 425T182 328T226 223T264 124T292 44T303
-1V-3Q303 -12 293 -12Z" />
<glyph unicode="]" glyph-name="bracketright" horiz-adv-x="447" d="M-18 -127Q-32 -127 -32 -121Q-32 -116 -21 -107T-1 -97Q37 -93 65 -92T121 -91Q146 -57 182 -2T262 120T348 262T431 409T498 548H367Q354 548 354 554Q354 568 375 574T426 582T482 584H522Q538
584 543 580T549 568Q549 556 532 518T485 426T419 308T344 180T270 57T207 -44T166 -107Q156 -120 150 -123T126 -127H-18Z" />
<glyph unicode="^" glyph-name="asciicircum" horiz-adv-x="584" d="M444 520Q437 520 426 528Q416 536 400 551T368 581T341 604Q303 586 268 570T194 534Q180 527 174 527Q167 527 169 534T178 550T192 564Q203 570 225 584T274 615T324 642T359 654Q376 650
393 630T427 588T455 554Q460 549 460 541Q460 534 456 527T444 520Z" />
<glyph unicode="_" glyph-name="underscore" horiz-adv-x="630" d="M0 -53V-27H630V-53H0Z" />
<glyph unicode="`" glyph-name="grave" horiz-adv-x="239" d="M204 694Q198 694 178 702T134 721T90 744T62 761Q58 764 55 767T52 774Q52 783 63 791Q71 797 78 797Q83 797 93 789T117 769Q144 748 165 733T197 712Q212 705 212 698Q212 694 204 694Z" />
<glyph unicode="a" glyph-name="a" horiz-adv-x="453" d="M319 -10Q302 -10 288 -2T266 28Q263 37 263 53Q263 75 269 102T282 148Q277 146 264 131T231 94T188 51T139 15T90 1Q74 1 56 10T27 35Q12 55 12 76Q12 103 30 132T78 188T141 238T205 276T255 297Q275
303 300 303Q314 303 329 300T354 288Q362 284 367 277T372 262Q372 254 365 257Q357 269 344 272T316 276Q276 276 228 250T142 189Q130 179 110 155T72 101T55 48Q55 35 62 25Q66 18 75 18Q89 18 112 33T161 69T206 111T236 140Q241 145 255 160T287 194T317
225T335 238Q340 238 351 236T371 228T374 215Q348 177 333 136T314 70Q313 66 313 63T313 55Q313 15 341 15Q356 15 381 33T432 76T479 124T509 160Q512 163 515 163Q519 163 522 160T522 151Q511 133 490 108T443 58T392 15Q379 5 359 -2T319 -10Z" />
<glyph unicode="b" glyph-name="b" horiz-adv-x="382" d="M80 -28Q70 -28 57 -26T33 -21T23 -16Q23 -14 32 -13T66 -11Q91 -11 120 1T177 31T223 61Q253 83 285 117T330 193Q332 200 335 212T338 236Q338 247 334 254T319 262Q299 262 278 251T237 226T203 198Q191
189 174 171T141 131T114 88T107 49Q109 45 105 33T89 21Q80 21 68 38Q61 46 61 71Q61 94 66 121T75 165Q65 153 58 140T27 100Q23 96 18 96Q11 96 11 104Q11 110 15 114Q51 160 75 192T106 239Q114 260 127 293T158 363T193 436T228 498Q243 521 263 544T308 583T362
599Q373 599 386 596Q387 596 391 594L401 591Q403 590 404 590T406 589Q434 572 434 542Q434 518 418 488Q404 460 373 424T301 350T218 278T140 219Q130 200 122 175T109 125Q129 154 154 181T198 225Q229 251 258 266T313 282Q325 282 342 274T374 254T391 227Q391
224 391 222T392 216Q392 189 377 161T340 108T293 63T249 30Q211 5 169 -11T80 -28ZM151 259Q197 289 243 330T328 416T392 500Q407 524 407 547Q407 558 403 565T388 573Q381 573 372 569T351 555Q309 523 273 475T207 372T151 259Z" />
<glyph unicode="c" glyph-name="c" horiz-adv-x="312" d="M158 -11Q140 -14 122 -14Q78 -14 49 7T20 68Q20 92 34 126Q44 149 71 179T134 237T207 284T274 303Q285 303 294 300Q305 296 313 289T321 268Q321 265 321 262T319 255Q319 252 315 242T305 225T295
221Q291 224 291 229Q291 234 293 240T296 252Q296 259 293 265T281 272Q262 272 232 255T171 210T114 147T79 79Q76 71 75 64T74 49Q74 27 88 18T124 8Q147 8 171 15Q239 35 281 70T367 160Q371 165 374 164T379 163Q382 162 382 157Q382 155 381 152T379 147Q336
89 284 46T158 -11Z" />
<glyph unicode="d" glyph-name="d" horiz-adv-x="374" d="M308 -109Q282 -105 271 -84T260 -32Q260 5 270 48T295 129T317 187Q294 160 265 128T203 67T142 20T90 1Q74 1 56 10T27 35Q12 55 12 76Q12 103 30 132T78 188T141 238T205 276T255 297Q265 299 276 301T299
303Q314 303 329 300T354 288L358 285Q382 340 411 396T473 500T543 575T620 604Q625 604 630 604T639 602Q664 597 674 585T685 555Q685 543 681 530T668 503Q646 464 611 426T533 353T450 284T374 222Q359 187 344 140T319 60Q313 36 310 15T306 -24Q306 -57
318 -78Q328 -94 343 -94Q354 -94 363 -86Q367 -84 370 -81T379 -75Q385 -72 389 -72Q396 -72 390 -83Q387 -86 383 -90T374 -100Q367 -105 353 -108T325 -111Q321 -111 317 -111T308 -109ZM404 279Q444 306 491 346T579 433T642 522Q655 546 655 560Q655 577 640
577Q626 577 603 561Q536 509 490 438T404 279ZM62 25Q67 19 75 19Q90 19 110 32T138 52Q189 93 240 140T337 236Q341 245 344 253T351 270Q336 276 316 276Q276 276 228 250T142 189Q130 179 110 155T72 101T55 48Q55 35 62 25Z" />
<glyph unicode="e" glyph-name="e" horiz-adv-x="319" d="M131 -15Q86 -15 53 6T20 70Q20 93 34 126Q44 149 71 179T134 237T207 284T274 303Q285 303 294 300Q311 294 317 281T324 254Q324 241 320 229T310 208Q292 181 259 160T191 127T134 113H132Q119 113
119 121Q119 126 127 126Q151 128 187 148T252 191Q264 201 280 219T297 254Q297 272 280 272Q271 272 262 268T246 262Q217 248 182 219T119 153T79 79Q76 71 75 64T74 49Q74 25 89 15T127 5Q160 5 195 19T263 57T323 106T370 158Q373 162 377 162T382 161Q386
160 386 156T384 147Q356 108 317 71T230 10T131 -15Z" />
<glyph unicode="f" glyph-name="f" horiz-adv-x="285" d="M-71 -340Q-80 -340 -80 -334Q-80 -329 -78 -325Q-74 -318 -60 -285T-26 -200T19 -89T66 29T108 136Q90 133 76 132T56 131Q47 131 38 137T29 153Q29 162 41 168T67 178T89 182Q100 182 105 174T118 166H120Q131
194 138 212T148 239Q156 260 170 293T201 363T236 436T271 498Q286 521 306 544T351 583T404 599Q416 599 427 597T448 589Q478 572 478 540Q478 527 474 512T461 479Q448 450 419 410T351 327T271 244T192 174Q218 176 245 178T299 181Q306 181 313 180T321 175Q321
173 317 171T299 164Q291 162 267 158T212 149T149 141Q135 105 117 56T80 -44T46 -135Q34 -170 31 -186T28 -210V-217Q28 -221 28 -225T24 -236Q6 -282 0 -298T-17 -322Q-25 -326 -42 -333T-71 -340ZM163 172Q200 200 239 240T315 325T382 415T433 493Q450 521
450 546Q450 573 431 573Q415 573 393 555Q374 541 348 509T296 437T251 362Q229 320 211 282T182 218T169 187Q166 181 163 172Z" />
<glyph unicode="g" glyph-name="g" horiz-adv-x="415" d="M-2 -367Q-14 -364 -23 -361Q-42 -351 -50 -339T-58 -312Q-58 -289 -43 -263T-2 -208Q23 -178 61 -147T142 -88T216 -38Q251 33 278 96T316 194Q295 171 271 143T236 101Q217 81 193 58T143 18T91 1Q75
1 57 10T28 35Q13 55 13 76Q13 103 31 132T79 188T142 238T206 276T256 297Q274 303 300 303Q312 303 329 299T359 287T373 262Q373 254 365 257Q358 269 345 272T317 276Q278 276 230 250T143 189Q131 179 110 155T73 101T56 48Q56 35 63 25Q66 20 75 20Q94 20
121 37T180 80T240 135T293 190T327 228Q329 233 334 235T345 237Q361 237 378 229T393 214Q374 173 349 119T295 6Q308 13 338 37T404 94T471 164Q483 177 489 177Q495 177 492 167T476 140Q460 121 432 95T373 41T316 -8T274 -38Q243 -104 214 -162T161 -257Q145
-282 122 -308T72 -351T15 -369Q11 -369 7 -369T-2 -367ZM-12 -341Q-6 -345 5 -341T35 -323Q74 -292 102 -251T153 -164T197 -76Q158 -105 109 -144T20 -223Q0 -243 -13 -267T-27 -312Q-27 -333 -12 -341Z" />
<glyph unicode="h" glyph-name="h" horiz-adv-x="455" d="M48 -13Q40 -13 44 -6Q46 0 54 24T75 82T100 151T124 215Q117 206 103 189T72 153T42 120Q39 117 38 117Q35 117 35 123Q35 135 41 145Q63 173 83 197T121 244Q111 250 111 259Q111 273 125 273Q131 273
134 271Q135 270 136 270T138 268Q143 275 146 281T153 294Q157 303 169 328T201 389T244 461T297 531T356 584T419 604Q423 604 427 604T435 602Q460 597 470 585T480 555Q480 543 476 530T463 503Q443 468 410 433T337 363T256 296T180 234Q156 183 143 144T123
80Q134 94 156 120T206 176T264 233T321 278T367 296Q391 296 391 271Q391 247 374 218T346 169Q332 140 324 114T313 70Q312 66 312 63T312 55Q312 15 340 15Q355 15 380 33T431 76T478 124T508 160Q511 163 515 163Q519 163 521 160T521 152Q511 135 490 110T443
59T392 15Q379 5 359 -2T318 -10Q302 -10 287 -2T265 28Q262 37 262 53Q262 58 262 63T263 75Q267 107 284 142T317 206Q321 214 323 220T326 230Q326 238 319 238Q312 238 297 229T257 198Q235 179 211 149T163 86T122 31T97 4Q92 1 74 -6T48 -13ZM199 279Q239
306 286 346T374 433T438 522Q450 545 450 560Q450 577 435 577Q428 577 419 574T398 561Q331 509 285 438T199 279Z" />
<glyph unicode="i" glyph-name="i" horiz-adv-x="226" d="M198 348Q185 348 171 350T157 369Q157 372 170 383T198 405T216 419Q233 433 237 433Q242 433 237 420T232 397Q232 392 226 380T212 358T198 348ZM89 -10Q71 -10 57 -2T35 28Q34 31 34 34T33 41Q33 61
42 91T64 149Q58 141 50 130T27 100Q23 96 18 96Q11 96 11 104Q11 110 15 114Q41 147 61 173T92 217Q92 218 92 218T91 220Q91 223 94 229Q102 253 110 269T129 288Q131 288 133 288T137 289Q148 289 157 284T166 269Q166 260 160 247T143 215Q121 169 104 132T84
70Q83 66 83 63T83 55Q83 15 109 15Q125 15 150 32T201 75T248 124T278 160Q281 163 284 163Q288 163 290 160T291 152Q282 135 261 110T213 59T161 15Q148 5 129 -2T89 -10Z" />
<glyph unicode="j" glyph-name="j" horiz-adv-x="215" d="M262 402Q249 402 235 405T220 424Q220 426 233 437T261 459T279 473Q298 486 301 486Q306 486 301 474T296 450Q296 445 290 433T275 412T262 402ZM-204 -367Q-209 -365 -214 -364T-223 -361Q-242 -351
-250 -339T-259 -311Q-259 -288 -244 -262T-204 -208Q-178 -178 -139 -147T-59 -88T15 -38Q46 26 72 88T121 217Q111 203 91 180T57 140Q53 134 48 134Q42 134 42 141Q42 147 46 151Q71 182 97 216T136 268Q141 276 155 276Q172 276 189 266T203 249Q176 188 149
127T94 5Q107 12 137 36T203 94T270 164Q282 177 288 177Q294 177 291 167T274 140Q258 121 231 95T173 41T116 -8T74 -38Q43 -104 14 -162T-40 -257Q-56 -282 -79 -308T-129 -351T-187 -369Q-191 -369 -195 -369T-204 -367ZM-214 -341Q-210 -343 -206 -343Q-190
-343 -166 -323Q-128 -292 -100 -251T-48 -164T-4 -76Q-43 -105 -92 -144T-181 -223Q-201 -243 -215 -268T-229 -313Q-229 -332 -214 -341Z" />
<glyph unicode="k" glyph-name="k" horiz-adv-x="344" d="M388 -154Q351 -154 318 -128T256 -58T209 37T180 138Q146 90 122 50T86 4Q81 1 63 -6T36 -13Q29 -13 32 -6Q34 -2 42 19T61 73T84 140T109 206Q99 195 86 179T56 137Q53 132 46 132Q39 132 39 138Q39
144 46 152Q60 169 76 191T107 234T131 268Q116 276 116 289Q116 297 122 301T136 301Q140 299 143 299Q160 344 186 396T246 496T319 574T403 604Q408 604 413 604T424 602Q430 601 435 598T446 593Q469 580 469 555Q469 537 459 516T435 473T406 435T384 409Q335
359 279 318T180 260Q164 226 150 191T127 126T112 80Q129 101 144 122T176 165Q176 169 176 173T175 181Q175 187 175 192T177 203Q178 209 182 215T190 221Q196 221 197 209Q198 206 199 202T201 194Q214 209 233 231T274 273T312 301Q326 308 340 308Q354 308
363 302T372 286Q372 272 351 262Q335 255 309 242T254 211T206 172Q221 119 235 81T270 9T325 -69Q348 -95 372 -111T415 -127Q432 -127 438 -120T445 -101Q445 -88 439 -73T425 -47Q420 -41 420 -36Q420 -33 424 -33Q433 -33 443 -41Q448 -47 456 -64T465 -95Q465
-115 451 -128T419 -148T388 -154ZM192 294Q235 313 279 346T361 424Q366 430 378 446T404 484T429 526T439 561Q439 571 433 575Q430 578 424 578Q408 578 387 561Q320 509 276 445T192 294Z" />
<glyph unicode="l" glyph-name="l" horiz-adv-x="234" d="M104 -10Q62 -10 46 11T29 63Q29 92 42 136T78 231T125 332T176 425T221 494Q240 519 262 544T311 586T372 603Q395 603 411 591T428 553Q428 543 425 530T413 503Q352 397 268 307T89 140Q85 125 82 113T76
94Q75 89 75 84T75 73Q75 49 83 31T110 13Q128 13 154 30T208 73T257 123T288 160Q291 163 294 163Q298 163 300 159T300 149Q290 132 268 107T219 57T167 12Q136 -10 104 -10ZM103 180Q141 206 182 247T262 338T334 435T387 522Q393 533 395 541T398 557Q398 576
382 576Q368 576 347 561Q293 519 247 454T165 316T103 180Z" />
<glyph unicode="m" glyph-name="m" horiz-adv-x="583" d="M23 -13Q15 -13 18 -6Q22 1 32 29T56 97T83 172Q73 157 62 143T42 120Q39 117 38 117Q35 117 35 123Q35 135 41 145Q62 172 73 187T91 215T107 244Q109 255 114 271T141 287Q172 287 172 274Q172 270 170
266T166 256Q154 229 140 194T115 128T97 80Q108 94 130 119T180 175T239 233T297 279T343 297Q366 297 366 271Q366 251 350 219Q343 204 331 179T312 140Q330 156 353 175T401 212T449 237Q454 239 469 243T495 248Q510 248 510 238Q510 231 503 223Q486 197
473 168T451 112T441 70Q440 66 440 63T440 55Q440 15 466 15Q482 15 507 32T558 75T605 124T635 160Q638 163 641 163Q645 163 647 160T648 152Q639 135 618 110T570 59T518 15Q505 5 486 -2T446 -10Q428 -10 414 -2T392 28Q389 37 389 51Q389 73 395 101T408
148Q413 162 421 179T437 209Q406 197 377 173T325 125T285 84Q281 73 270 66T248 59Q233 59 233 72Q233 77 236 84Q246 108 258 133T281 180T296 209Q304 223 304 231Q304 239 297 239Q290 239 274 230T232 198Q211 179 186 149T138 86T98 31T73 4Q67 1 50 -6T23
-13Z" />
<glyph unicode="n" glyph-name="n" horiz-adv-x="404" d="M-2 -13Q-9 -13 -6 -6Q-3 0 5 21T23 73T45 135T65 195T81 239Q83 245 85 256T93 277T116 287Q146 287 146 273Q146 268 141 256Q129 229 115 194T90 128T73 80Q83 94 105 120T156 176T214 234T271 279T317
297Q341 297 341 271Q341 262 336 244Q327 219 313 196T288 146Q269 99 266 70Q265 66 265 63T265 55Q265 15 292 15Q307 15 332 33T383 76T431 124T460 160Q463 163 466 163Q470 163 472 160T473 152Q464 135 443 110T395 59T344 15Q329 5 307 -3T263 -10Q235
-7 223 9T211 49Q211 76 221 106T245 164T266 205Q274 221 274 230Q274 238 267 238Q260 238 246 229T208 198Q186 179 161 149T113 86T72 31T47 4Q42 1 25 -6T-2 -13Z" />
<glyph unicode="o" glyph-name="o" horiz-adv-x="351" d="M118 -11Q90 -11 69 2Q34 23 34 78Q34 101 42 131Q49 156 67 185T109 242T163 286T221 303Q233 303 242 300Q254 296 262 286T271 259Q271 242 263 240T254 244Q254 246 254 248T255 251Q255 259 251 265T234
272Q218 272 195 255T147 210T104 147T79 79Q78 74 78 70T77 60Q77 37 87 22T121 6Q149 6 175 27T221 79T252 132Q260 150 263 163T266 185Q266 193 265 199T261 209Q259 215 259 218Q259 226 265 231T279 236Q285 236 292 232Q300 230 314 229T344 228Q361 228
378 229T409 233Q411 234 415 234Q422 234 422 230Q422 226 415 223Q380 207 353 206T305 205Q307 180 294 152T267 101Q250 76 228 50T179 7T118 -11Z" />
<glyph unicode="p" glyph-name="p" horiz-adv-x="369" d="M-128 -342Q-140 -342 -140 -332Q-140 -328 -137 -321Q-125 -295 -103 -244T-55 -126T-1 11Q23 73 45 132T83 238T98 312Q98 320 109 321T130 323Q163 323 163 301Q163 283 143 254Q125 225 112 195T86
132Q110 164 131 195T180 248Q202 265 223 275T270 286Q296 286 322 274T352 234Q353 231 353 228T353 221Q353 186 333 153T284 93T232 51Q212 39 184 25T124 1T63 -9Q45 -9 33 -5Q20 -35 3 -82T-29 -176Q-36 -196 -34 -208T-39 -240Q-45 -260 -52 -278T-68 -314Q-70
-318 -80 -325T-104 -337T-128 -342ZM41 11Q73 11 108 26T177 66T238 120T283 178Q303 210 303 237Q303 268 276 268Q269 268 259 266T236 256Q183 228 149 191T91 108T41 11Z" />
<glyph unicode="q" glyph-name="q" horiz-adv-x="457" d="M247 -374Q228 -374 210 -364T180 -335Q164 -310 164 -271Q164 -237 174 -199T197 -126T219 -66Q228 -39 243 0T274 80T302 150T317 187Q294 160 265 128T203 67T142 20T90 1Q74 1 56 10T27 35Q12 54 12
78Q12 105 29 134T74 190T133 239T194 278T242 299Q251 301 262 302T285 303Q305 303 324 300T354 288L358 285Q365 300 371 314T385 345Q391 352 403 355T429 359Q440 359 449 356T458 343Q458 328 424 300Q405 285 385 242T344 143T305 32Q313 14 333 14Q351
14 376 31T429 74T477 123T508 160Q511 163 514 163Q518 163 520 160T521 152Q511 135 490 110T442 59T391 15Q378 5 357 -3T314 -10Q322 -46 328 -93T337 -184T339 -250Q332 -316 305 -345T247 -374ZM75 18Q90 18 118 37T179 84T245 144T302 200T337 236Q339 242
341 244L347 262Q350 266 351 270Q336 276 316 276Q276 276 228 250T142 189Q130 179 110 155T72 101T55 48Q55 35 62 25Q66 18 75 18ZM242 -348Q273 -348 288 -325T309 -267T315 -203Q315 -192 315 -182T313 -164Q312 -132 307 -89T296 -18Q296 -14 294 -11T288
-16Q272 -59 252 -109T219 -209T210 -306Q212 -328 221 -338T242 -348Z" />
<glyph unicode="r" glyph-name="r" horiz-adv-x="314" d="M172 -12Q155 -12 142 -5T124 24Q121 35 121 46Q121 76 136 104T173 157T209 199Q217 207 227 220T238 246Q238 254 230 261T201 272Q189 274 179 275T157 277Q129 239 103 201T46 125Q39 118 34 118Q28
118 28 124Q28 130 34 136Q88 202 127 277Q122 277 112 277T96 279Q89 281 85 285T81 293Q81 299 86 300Q99 304 114 312T142 333Q156 347 168 362T187 386Q194 391 202 391Q207 391 211 388T216 379Q216 372 210 361Q201 347 191 330T171 299Q189 298 207 297T244
296Q254 296 263 296T283 297Q313 297 313 282Q313 272 303 258T277 226Q243 187 219 144T187 78Q179 54 179 42Q179 18 198 18Q215 18 239 35T290 76T337 124T367 160Q369 163 373 163Q377 163 380 160T380 151Q369 134 348 109T301 58T250 15Q237 5 215 -3T172
-12Z" />
<glyph unicode="s" glyph-name="s" horiz-adv-x="296" d="M51 -50Q40 -50 29 -47T13 -35Q9 -27 14 -16T28 5Q36 13 48 21T75 34H77Q82 34 82 31T78 24Q60 15 50 2Q43 -6 43 -15Q43 -31 62 -31Q83 -31 107 -19T154 14T191 58T205 102Q205 116 190 127T157 148T130
164Q119 172 110 180T96 199Q88 185 76 166T46 125Q40 119 34 119Q28 119 28 124Q28 127 33 134Q60 166 73 193T91 234Q95 263 118 289T174 334T241 365T303 376Q330 376 351 366T372 334Q372 322 365 308Q356 289 335 274Q334 273 332 273Q324 273 324 280Q324
285 329 290Q337 297 342 307T347 326Q347 344 326 344Q311 344 291 339T253 326T222 312Q197 300 176 283T136 239Q123 222 123 207Q123 189 147 174Q172 160 196 147T238 119T255 83Q255 60 226 28Q208 8 178 -10T113 -39T51 -50Z" />
<glyph unicode="t" glyph-name="t" horiz-adv-x="226" d="M89 -10Q71 -10 57 -2T35 28Q34 31 34 34T33 41Q33 61 42 91T64 149Q58 141 50 130T27 100Q23 96 18 96Q11 96 11 104Q11 110 15 114Q41 147 61 173T92 217Q92 219 98 229T114 259Q106 258 101 258T91
257Q84 257 79 263T78 278Q83 292 100 294T130 297Q131 299 134 299Q146 321 157 342T175 377T183 392Q203 424 209 434T225 447Q236 448 248 446T265 437Q268 433 268 427Q268 418 264 410T256 396Q252 389 246 387T234 374Q224 355 212 333T187 291L199 292Q223
294 244 297T294 299Q299 299 304 298T310 293Q310 289 284 282Q274 278 241 274T172 265Q162 246 154 234T143 215Q121 169 104 132T84 70Q83 66 83 63T83 55Q83 15 109 15Q125 15 150 32T201 75T248 124T278 160Q281 163 284 163Q288 163 290 160T291 152Q282
135 261 110T213 59T161 15Q148 5 129 -2T89 -10Z" />
<glyph unicode="u" glyph-name="u" horiz-adv-x="444" d="M307 -10Q289 -10 275 -2T254 28Q253 33 252 39T250 53Q250 77 256 107T271 157Q267 154 257 137T232 98T199 53T159 16T113 1Q97 1 75 10T42 35Q32 51 32 75Q32 104 45 138T78 203Q85 213 94 227T112
251T125 263Q137 267 153 267Q170 267 178 263Q185 260 185 256Q185 251 177 243Q166 233 147 213T110 165T79 103Q69 76 69 56Q69 21 97 21Q121 21 148 41T200 90T246 147T278 193Q288 207 300 229T325 272T344 303Q351 303 365 301T390 292T396 277Q390 267 378
246T353 204T333 169Q309 123 302 70Q301 66 301 63T301 55Q301 15 328 15Q343 15 368 33T419 76T467 124T497 160Q499 163 503 163Q507 163 509 160T509 152Q500 135 479 110T431 59T380 15Q367 5 347 -2T307 -10Z" />
<glyph unicode="v" glyph-name="v" horiz-adv-x="314" d="M72 -32Q53 -32 46 -16T40 16Q45 45 54 75T73 136Q75 143 78 154T84 178Q77 168 69 156T51 131Q47 126 42 126Q38 126 36 130T38 140Q61 172 74 196T92 236Q94 256 88 269T64 283Q61 283 58 283T51 281Q50
281 50 281T48 280Q45 280 45 283Q45 286 51 294Q55 297 66 298T87 301T99 302Q113 302 125 300T145 288Q150 283 153 275T154 259Q154 253 149 239T137 207T125 177T118 158Q108 130 98 96T90 44Q137 106 186 168T292 283Q315 306 339 325T393 357Q406 362 417
362Q433 362 445 356T461 342Q465 339 465 331Q465 319 457 319Q455 319 449 323Q444 328 434 328T415 328Q394 328 363 307T295 252T222 178T156 98T106 26T84 -23Q84 -28 79 -30T72 -32Z" />
<glyph unicode="w" glyph-name="w" horiz-adv-x="549" d="M319 -3Q300 -3 284 5T261 35Q254 58 254 92Q254 109 256 126T263 157Q258 148 244 124T209 71T162 22T104 1Q64 1 49 21T34 71Q34 106 48 143T78 203Q85 213 99 233T126 270T145 290Q151 292 158 293T172
294Q188 294 198 288Q208 285 208 278Q208 275 203 270Q192 261 168 234T121 173T85 104Q72 72 72 51Q72 21 94 21Q115 21 154 52Q182 74 208 107T256 176T297 244Q300 251 314 251Q331 251 347 244T357 226Q328 179 313 125Q310 113 307 96T303 61Q303 43 309
30T331 17Q339 17 347 19T367 29Q405 49 441 83T506 160T543 244Q546 256 546 273Q546 293 540 311T516 337Q510 339 503 339T488 339H486Q481 339 481 344Q481 349 486 351Q498 354 517 354Q535 354 553 348T579 325Q587 306 587 287Q587 250 566 208T511 127Q485
95 453 67T398 23Q385 13 364 5T319 -3Z" />
<glyph unicode="x" glyph-name="x" horiz-adv-x="409" d="M-21 -192Q-30 -192 -30 -181Q-30 -144 -9 -102T44 -19T107 57T160 114T182 141Q182 151 176 169T160 203T138 219Q123 219 105 196T60 142Q54 135 49 135Q43 135 43 142Q43 148 47 152Q56 163 71 183T103
225T136 261T165 276Q190 276 201 261T218 224T232 176Q269 211 304 240T382 297Q389 301 397 301Q409 301 418 294T427 276Q427 266 418 266T403 263Q366 249 345 235T308 208L237 151Q237 140 248 111T273 55Q292 20 316 20Q332 20 348 31T380 58Q404 85 427
115T461 160Q464 163 468 163Q473 163 475 159T473 149Q467 141 453 121T420 78T382 36Q355 11 335 2T297 -7Q293 -7 288 -7T278 -5Q256 0 240 21T212 68T193 112Q175 93 150 66T96 6T44 -61T4 -126T-13 -181Q-14 -192 -21 -192Z" />
<glyph unicode="y" glyph-name="y" horiz-adv-x="415" d="M-2 -367Q-14 -364 -23 -361Q-42 -351 -50 -339T-58 -312Q-58 -289 -43 -263T-2 -208Q23 -178 61 -147T142 -88T216 -38Q233 -3 251 37T287 114T316 183T335 231Q319 212 298 184T252 124T201 64T146 19T91
1Q51 1 36 21T20 70Q20 90 25 110T40 147Q46 159 59 179T89 220T123 255T157 269Q176 269 186 256T188 237Q172 226 149 204T102 152Q96 144 88 127T72 91T65 55Q65 48 67 42T74 32Q82 26 92 26Q106 26 123 35T157 58Q213 112 257 171T350 288Q353 298 367 298Q383
298 400 289T415 273Q406 253 392 220T360 149T326 74T295 6Q307 12 338 36T406 94T473 166Q479 172 482 172Q488 172 488 164Q488 157 482 148Q467 128 441 101T384 47T324 -3T274 -38Q243 -104 214 -162T161 -257Q145 -282 122 -308T72 -351T15 -369Q11 -369
7 -369T-2 -367ZM1 -345Q9 -345 20 -340T45 -324Q83 -293 109 -252T155 -164T197 -76Q158 -105 109 -144T20 -223Q-4 -247 -15 -270T-26 -312Q-26 -345 1 -345Z" />
<glyph unicode="z" glyph-name="z" horiz-adv-x="421" d="M284 -33Q264 -40 243 -40Q216 -40 190 -29T134 0Q117 10 95 18Q76 5 59 -4T27 -14Q19 -14 16 -12Q10 -9 10 3Q10 18 25 38T76 58Q95 58 116 52Q142 72 147 79Q188 114 229 153T302 223Q277 231 257 236T216
244Q211 245 206 245T196 246Q173 246 157 238T127 217Q110 202 94 184T64 147Q61 143 55 136T45 132Q41 136 41 140Q41 144 44 148Q66 178 84 203T112 240Q131 268 150 277T188 287Q205 287 223 283T260 273Q278 269 298 265T337 256Q345 263 365 274T400 285Q414
285 414 271Q414 254 399 241T363 221T328 217Q294 188 246 148T157 70Q151 66 145 60T130 47Q138 43 145 40T160 33Q188 16 213 4T264 -8Q288 -8 311 5Q332 17 363 43T425 102T475 160Q478 164 485 164Q489 164 491 163T492 157Q484 143 466 121T423 75T375 29T332
-7Q314 -20 303 -25T284 -33Z" />
<glyph unicode="{" glyph-name="braceleft" horiz-adv-x="413" d="M145 -138Q116 -138 84 -129T29 -98T7 -34Q7 1 23 35T59 99T96 155T112 199Q112 219 93 231T33 250Q23 253 23 262Q23 273 35 273Q68 273 101 277T158 300T186 358Q188 381 191 410T203 470T234
525T295 566T398 582H417Q427 582 434 581T441 571Q441 561 431 561Q396 561 369 559T318 544T273 497Q248 460 240 427T219 352Q206 315 191 297T153 272T95 257Q123 243 135 223T147 183Q147 159 134 135T102 86T70 32T56 -27Q56 -73 89 -95T164 -118L176 -115H181Q187
-115 187 -123Q187 -133 174 -135T145 -138Z" />
<glyph unicode="|" glyph-name="bar" horiz-adv-x="257" d="M129 -49V583H163V-49H129Z" />
<glyph unicode="}" glyph-name="braceright" horiz-adv-x="465" d="M109 -137Q105 -137 100 -137T89 -138Q81 -138 75 -136T68 -126Q68 -116 78 -116Q113 -116 140 -114T190 -99T234 -52Q259 -14 268 19T290 92Q302 129 317 147T356 173T413 187Q385 201 373 221T361
261Q361 285 374 309T406 358T438 412T452 471Q452 504 435 524T395 553T350 562Q344 562 339 561T327 560Q321 560 321 567Q321 578 334 580T363 583Q392 583 424 574T478 543T500 478Q500 443 485 410T449 345T413 289T397 244Q397 225 416 214T476 194Q486 191
486 182Q486 171 473 171Q440 171 407 167T350 144T322 86Q319 63 316 34T304 -26T273 -81T212 -121T109 -137Z" />
<glyph unicode="~" glyph-name="asciitilde" horiz-adv-x="408" d="M148 351Q147 349 143 349Q139 349 136 351T134 354Q154 382 175 406T225 430Q234 430 243 427Q258 421 281 409T324 390Q330 389 336 388T346 386Q372 386 385 419Q387 422 392 422Q396 422
399 420T402 416Q392 391 371 373T326 354Q318 354 310 357Q285 365 261 376T212 387Q192 387 176 377T148 351Z" />
<glyph unicode="&#xa0;" glyph-name="uni00A0" horiz-adv-x="219" />
<glyph unicode="&#xa1;" glyph-name="exclamdown" horiz-adv-x="285" d="M206 358Q199 358 199 365T199 382Q199 387 204 396T216 412T226 420Q236 420 248 418T260 403Q260 400 249 389T225 368T206 358ZM25 -165Q13 -165 -1 -153T-15 -129Q-15 -105 9 -62Q14
-53 20 -50T32 -36Q69 36 107 111T170 265Q172 269 180 272T195 276Q206 276 206 268Q206 266 206 264T204 259Q188 213 168 159T126 52T85 -46Q67 -88 53 -120T33 -161Q29 -165 25 -165Z" />
<glyph unicode="&#xa2;" glyph-name="cent" horiz-adv-x="460" d="M110 -12Q98 -12 98 -3Q98 5 109 28T137 84Q102 96 81 124T60 198Q60 236 81 276T136 355T213 424T298 474T379 497Q389 514 397 525T409 541Q413 546 420 546Q435 546 435 533Q435 527 431 523Q427
518 422 511T412 495Q414 494 417 494T424 493Q438 488 449 478T461 450Q461 443 458 432Q457 427 452 417T441 397T429 388Q422 388 420 396T421 409Q432 429 432 443Q432 463 408 463H404L395 461H390Q362 418 327 358T255 232T187 100Q192 99 196 99T206 99Q222
99 238 101T268 108Q318 122 356 142T426 189Q438 198 442 198Q445 198 445 194Q445 184 431 170Q392 136 345 112T242 79Q225 76 208 75T175 75Q168 57 160 41T145 7Q141 -1 131 -6T110 -12ZM151 108Q178 159 213 221T284 344T350 452Q309 438 263 407T176 324T112
201Q106 182 106 167Q106 144 118 130T151 108Z" />
<glyph unicode="&#xa3;" glyph-name="sterling" horiz-adv-x="548" d="M388 -14Q372 -14 356 -12T322 -7Q314 -6 292 -1T240 12T181 28T130 42T101 51Q97 47 91 42T78 29Q68 16 60 11T50 6Q44 2 41 2Q29 -5 24 -5Q16 -5 16 4Q17 32 35 55T78 86Q79 86 80 86T83
87Q94 120 110 160T143 244Q84 236 63 236Q54 236 45 243T36 260Q36 269 48 275T74 284T96 288Q109 288 113 280T125 272Q133 272 141 272T157 274Q187 346 225 416T307 535Q333 563 365 579T433 596Q444 596 455 594T478 588Q504 578 521 559T538 508Q538 495
534 479T518 449Q511 441 504 441Q497 441 497 449Q497 456 501 463Q507 474 509 484T511 505Q510 540 494 554T453 569Q416 569 380 543Q354 525 323 483T260 386T203 279Q229 282 255 284T306 287Q314 287 322 286T330 282Q330 277 306 270Q296 267 262 261T188
250Q170 211 150 169T112 89Q121 87 129 85T147 79Q183 67 226 55T313 36T395 28Q426 28 455 36T510 63Q535 83 559 109T601 160Q604 163 607 163Q611 163 613 160T613 152Q604 135 583 110T535 59T483 15Q461 -1 437 -7T388 -14Z" />
<glyph unicode="&#xa4;" glyph-name="currency" horiz-adv-x="686" d="M45 189L193 352Q176 383 176 419Q176 452 188 483T223 540L126 704L267 579Q289 593 314 601T365 609Q393 609 415 601T455 578L639 704L487 539Q505 508 505 470Q505 437 492 407T458 352L558
189L414 314Q392 301 367 293T316 284Q290 284 267 292T226 314L45 189ZM340 314Q372 314 398 332T441 380T458 447Q458 484 442 513T399 560T340 578Q308 578 282 561T239 514T223 447Q223 410 239 380T281 332T340 314Z" />
<glyph unicode="&#xa5;" glyph-name="yen" horiz-adv-x="310" d="M64 -38Q53 -38 53 -29Q56 -15 76 21T127 107Q108 106 92 105T64 104Q42 104 42 115Q42 138 69 139T148 142L174 181L170 197Q150 196 134 195T106 194Q84 194 84 205Q84 213 95 222T116 231H163Q149
282 128 335T78 435T17 515Q16 515 16 517Q16 524 30 534T50 545Q70 545 91 516T132 438T167 336T192 232H206Q246 294 285 351T357 453T411 525T438 552Q449 552 460 543T472 523Q472 520 470 516Q417 449 361 377T251 232H263Q288 232 303 229T318 220Q318 213
305 209T274 204T242 202T228 201L188 142H222Q247 142 262 139T277 130Q277 124 266 121T241 116T223 114L166 108Q153 89 140 64T114 16T89 -22T64 -38Z" />
<glyph unicode="&#xa6;" glyph-name="brokenbar" horiz-adv-x="257" d="M129 301V583H163V301H129ZM129 -49V228H163V-49H129Z" />
<glyph unicode="&#xa7;" glyph-name="section" horiz-adv-x="532" d="M97 -191Q65 -191 37 -185T-8 -163T-25 -121Q-25 -104 -21 -89T-9 -61Q-6 -55 -1 -55Q3 -55 3 -62Q3 -67 2 -70Q-4 -86 -4 -99Q-4 -133 30 -145T109 -158Q150 -158 189 -151T246 -138Q284 -126
315 -107T366 -63T386 -16Q386 6 362 27T282 64Q254 73 220 80T153 98T101 132T80 195Q80 224 96 247T140 287T196 319Q181 332 172 350T164 395Q164 428 185 455T239 502T305 536T365 557Q378 560 400 562T447 565Q478 565 508 560T558 540T578 500Q578 496 576
481T566 466Q562 466 559 472T555 485Q555 509 526 517T461 525Q440 525 408 522T342 510T277 489T228 457T209 412Q209 383 233 368T290 344T353 327Q392 317 429 302T491 262T515 199Q515 173 500 146T461 95T413 56Q422 44 427 31T432 1Q432 -34 407 -66T341
-124T256 -166Q234 -173 189 -182T97 -191ZM399 70Q409 78 419 86T435 98Q471 132 471 170Q471 197 447 222T364 263Q330 273 288 281T212 308Q177 293 151 268T125 214Q125 186 149 170T207 144T270 127Q306 118 341 105T399 70Z" />
<glyph unicode="&#xa8;" glyph-name="dieresis" horiz-adv-x="211" d="M66 695Q55 695 44 697T32 711Q32 714 42 722T65 740T79 751Q91 762 96 762Q98 762 98 760Q98 756 95 749T91 734Q91 726 82 711T66 695ZM166 695Q155 695 144 697T133 711Q133 714 143 722T166
740T180 751Q192 762 197 762Q198 762 198 760Q198 756 195 749T192 734Q192 726 182 711T166 695Z" />
<glyph unicode="&#xa9;" glyph-name="copyright" horiz-adv-x="736" d="M323 -55Q233 -55 163 -18T53 85T13 230Q13 251 16 272Q25 340 60 399T149 503T270 573T410 599Q500 599 570 561T680 459T721 313Q721 293 718 272Q709 204 674 145T584 41T463 -29T323
-55ZM306 -17Q327 -20 347 -20Q424 -20 492 13T609 103T673 234Q679 264 679 292Q679 361 647 419T559 515T428 562Q418 564 409 564T389 564Q312 564 243 532T126 442T62 310Q56 280 56 252Q56 184 87 126T175 30T306 -17ZM291 47Q260 47 230 58T176 95Q145 129
145 180Q145 231 177 295Q205 347 249 393T346 469T452 499Q468 499 488 495T523 478T538 436Q538 415 528 400T506 377T484 365Q475 362 470 362Q461 362 461 368Q461 378 481 395Q498 409 498 433Q498 452 482 462T446 472Q409 472 368 445T290 374T228 282Q212
251 205 223T198 172Q198 126 224 100T297 73Q339 73 384 92T468 142T532 204Q534 207 538 210T546 213Q551 213 554 206Q555 204 555 200Q555 191 550 186Q521 147 480 116T390 66T291 47Z" />
<glyph unicode="&#xaa;" glyph-name="ordfeminine" horiz-adv-x="649" d="M454 466Q434 466 416 480T397 528Q397 551 403 578T416 625Q411 623 398 608T365 571T322 528T274 492T225 478Q207 478 189 488T158 516T146 552Q146 580 164 609T212 665T275 715T339
753T390 773Q408 779 435 779Q458 779 482 769T506 739Q506 732 504 732Q497 732 482 742T450 753Q411 753 363 727T277 666Q265 655 244 631T206 578T189 526Q189 516 193 506T210 495Q232 495 260 515T317 563T370 617Q376 622 390 637T422 671T452 702T470 715Q474
715 483 713T501 707T510 697Q510 693 509 692Q476 646 462 600T448 532Q448 514 455 503T476 492Q487 492 516 512T581 566T644 636Q647 640 651 640Q658 640 658 633Q658 630 657 629Q646 608 624 581T572 527T512 484T454 466Z" />
<glyph unicode="&#xab;" glyph-name="guillemotleft" horiz-adv-x="379" d="M174 94Q157 121 138 144T95 189Q83 203 83 208Q83 213 88 217T100 228Q130 256 149 275T187 312T238 357Q243 360 246 360T250 354Q250 347 236 330Q226 318 216 307T188 277T134 223Q154
183 169 154T189 109Q193 101 193 93Q193 83 187 83Q181 83 174 94ZM317 83Q310 83 303 94Q270 148 226 189Q214 203 214 207Q214 212 219 216T231 228Q261 256 280 275T318 312T368 357Q372 360 376 359T380 353Q380 346 367 330Q357 318 347 307T319 277T263
223Q285 183 299 154T321 109Q324 102 324 95Q324 83 317 83Z" />
<glyph unicode="&#xac;" glyph-name="logicalnot" horiz-adv-x="744" d="M656 39Q647 39 644 51Q646 104 649 157T666 261Q514 250 362 239T57 220Q50 219 43 224T36 235Q36 240 42 244T64 249Q219 255 373 269T680 287Q694 287 704 284T714 271Q714 259 710 246T704
220Q696 177 685 133T668 46Q664 39 656 39Z" />
<glyph unicode="&#xad;" glyph-name="uni00AD" horiz-adv-x="376" d="M161 170Q143 170 143 180Q143 188 154 197T176 206Q187 206 214 206T272 207T323 208Q348 208 363 204T379 194Q379 188 367 185T342 181T324 178Q300 177 268 175T206 172T161 170Z" />
<glyph unicode="&#xae;" glyph-name="registered" horiz-adv-x="736" d="M323 -55Q233 -55 163 -18T53 85T13 230Q13 251 16 272Q25 340 60 399T149 503T270 573T410 599Q500 599 570 561T680 459T721 313Q721 293 718 272Q709 204 674 145T584 41T463 -29T323
-55ZM306 -17Q327 -20 347 -20Q424 -20 492 13T609 103T673 234Q679 264 679 292Q679 361 647 419T559 515T428 562Q418 564 409 564T389 564Q312 564 243 532T126 442T62 310Q56 280 56 252Q56 184 87 126T175 30T306 -17ZM486 63Q474 63 454 78T411 115T367 163T329
208T306 237Q302 236 291 235T274 234L267 238Q250 201 237 162T215 78Q213 77 208 75T196 73Q185 73 185 81Q185 93 193 122T216 189T246 269T278 348T306 411T324 444Q326 446 332 446Q343 446 355 440T365 427Q343 381 319 340T274 256Q311 257 362 269T460
312Q495 335 514 363T534 418Q534 440 519 457T470 482Q454 485 437 485Q404 485 369 477T306 459T268 446Q265 445 258 451T251 467Q251 472 255 477T273 486Q290 490 328 497T409 505Q439 505 466 499Q513 490 538 468T564 414Q564 374 543 345T489 296T420 263T352
243Q378 193 417 156T498 81Q503 78 503 74Q503 70 498 67T486 63Z" />
<glyph unicode="&#xaf;" glyph-name="overscore" horiz-adv-x="318" d="M114 694Q89 694 89 703Q89 720 114 724T179 729Q199 729 222 729T269 728Q280 728 291 726T302 717Q303 711 294 708T275 703T262 701Q239 700 211 699T157 696T114 694Z" />
<glyph unicode="&#xb0;" glyph-name="degree" horiz-adv-x="353" d="M229 503Q204 503 179 514T138 546T121 594Q121 618 139 641T182 668Q189 670 195 670T208 670Q245 670 273 649T301 579Q301 539 280 521T229 503ZM230 537Q243 537 253 542T265 560Q266 565
266 569T267 577Q267 606 246 620T193 633Q180 632 172 618T164 591Q164 566 186 552T230 537Z" />
<glyph unicode="&#xb1;" glyph-name="plusminus" horiz-adv-x="614" d="M243 33Q233 33 233 42Q233 49 238 58Q242 66 253 91T280 150T313 223Q249 222 209 222T158 220Q135 219 135 230Q135 238 145 247T166 257H328Q351 306 370 346T396 399Q407 420 418 420Q426
420 426 409Q426 402 420 388L364 257H511Q541 257 541 244Q541 232 513 229Q497 228 456 227T350 225L276 52Q272 45 262 39T243 33ZM80 -38Q57 -39 57 -28Q57 -20 68 -11T89 -1Q94 -1 118 -1T178 -1T254 -1T331 0T397 0T435 0Q464 0 464 -12Q464 -26 436 -29Q422
-30 385 -31T301 -33T207 -35T125 -36T80 -38Z" />
<glyph unicode="&#xb2;" glyph-name="uni00B2" horiz-adv-x="583" d="M252 349Q241 349 230 350T208 353Q201 355 180 360T134 372T86 385T53 395Q45 387 29 374T2 356Q1 356 0 356T-3 355Q-13 355 -13 368Q-12 406 11 419T64 431Q94 448 133 472T210 525T279
585Q304 611 315 633T326 673Q326 699 306 714T250 729Q225 729 197 722Q190 721 175 716T142 702T112 684T99 662Q99 659 101 653Q103 649 103 642Q103 629 94 629Q89 629 83 635Q79 639 77 643T72 652Q68 659 68 668Q68 686 83 701T121 729T164 750T196 760Q211
763 225 764T253 765Q309 765 349 743T389 680Q389 658 375 632T328 573Q298 544 259 517T180 466T107 425Q124 421 141 417T174 407Q189 403 203 399T227 393Q235 392 243 392T260 391Q287 391 309 396T336 412Q341 425 350 425Q354 425 357 422T361 412Q361 400
346 386Q343 383 337 379Q336 377 335 376L329 372Q329 372 327 370Q309 358 291 354T252 349Z" />
<glyph unicode="&#xb3;" glyph-name="uni00B3" horiz-adv-x="540" d="M164 262Q140 262 110 267T57 292T34 350Q34 362 40 379T63 397Q72 397 78 391T83 374Q82 369 81 364T79 354Q79 331 93 316T127 295T165 288Q198 289 233 303T297 341T345 399T363 469Q363
490 347 508T295 534Q274 534 254 529Q243 528 234 527T216 526Q203 527 197 534T191 548Q191 558 199 565T221 569Q239 566 260 566Q285 566 314 575T364 603T385 654Q385 678 363 697T302 718Q281 718 253 710T203 686T182 646Q182 638 177 633T165 628Q153 628
153 641Q153 678 175 703T235 741T317 754Q360 754 395 737T441 682Q444 672 444 660Q444 629 423 599T361 549Q388 542 406 520T424 464Q424 418 399 381T335 317T250 276T164 262Z" />
<glyph unicode="&#xb4;" glyph-name="acute" horiz-adv-x="239" d="M131 695Q123 695 123 699Q123 704 138 713Q148 719 169 734T218 770Q232 782 241 789T254 796Q257 796 261 796T271 791Q282 783 282 777Q282 773 280 770T275 762Q268 756 247 745T201 723T156
703T131 695Z" />
<glyph unicode="&#xb5;" glyph-name="uni00B5" horiz-adv-x="445" d="M-139 -338Q-116 -293 -93 -235T-46 -114T-1 8T41 115L45 124Q53 143 60 162T77 197Q86 213 95 231T111 252Q123 256 140 256Q156 256 165 252Q172 249 172 244Q172 238 166 232Q150 217 124
180T79 92Q69 65 69 44Q69 10 98 10Q110 10 126 17T162 40Q190 63 220 102T279 182Q288 195 301 217T326 261T344 292Q351 292 365 289T390 280T396 265Q390 255 378 235T353 192T334 157Q323 135 315 110T302 58Q301 54 301 51T301 44Q301 25 308 14T329 3Q339
3 349 9Q365 18 392 40T448 90T497 148Q500 151 503 151Q507 151 509 148T510 140Q501 123 480 98T432 47T380 3Q367 -7 347 -15T307 -23Q285 -23 268 -9T251 40Q251 64 257 94T271 144Q267 141 257 125T233 86T199 41T159 4T112 -11Q99 -11 78 -4T46 18Q30 -25
14 -68T-15 -147Q-28 -182 -31 -198T-34 -222V-229Q-34 -233 -34 -237T-38 -248Q-55 -294 -61 -311T-79 -335Q-86 -339 -103 -345T-132 -352Q-141 -352 -141 -346Q-141 -341 -139 -338Z" />
<glyph unicode="&#xb6;" glyph-name="paragraph" horiz-adv-x="528" d="M168 -60Q164 -60 160 -57T153 -47Q152 -32 164 11T196 114T239 239Q223 241 207 245T174 254Q112 272 82 308T52 388Q52 430 80 470T165 538Q209 559 269 571T390 583Q450 583 500 569Q513
569 525 564T532 549Q499 483 462 408T391 255T329 98T288 -56Q284 -60 278 -60Q266 -60 263 -47Q262 -32 274 10T305 111T348 234Q329 233 311 233T272 236Q241 162 217 89T178 -56Q174 -60 168 -60ZM283 260Q303 261 322 262T361 268Q384 331 407 389T449 491T478
554Q463 556 449 558T420 560Q428 554 421 549Q390 483 354 410T283 260ZM249 261Q273 327 297 388T341 495T370 558Q309 553 258 534T169 486T110 426T89 364Q89 331 117 305T208 266Q218 264 228 263T249 261Z" />
<glyph unicode="&#xb7;" glyph-name="middot" horiz-adv-x="208" d="M151 158Q141 158 130 160T118 174Q118 176 125 183T139 198T149 208Q166 219 171 219Q177 219 177 212T177 196Q177 189 168 174T151 158Z" />
<glyph unicode="&#xb8;" glyph-name="cedilla" horiz-adv-x="335" d="M114 -223Q91 -223 71 -214T41 -185Q38 -179 38 -176Q38 -171 41 -171T46 -172Q50 -179 66 -194T106 -209Q132 -209 156 -199T195 -171T210 -130Q210 -113 200 -103T170 -92Q159 -92 146 -95T125
-98Q118 -98 118 -94Q118 -91 128 -75T151 -40T177 -6T194 9Q203 9 203 2Q203 1 196 -9T180 -34T162 -59T150 -76Q158 -74 163 -74T176 -73Q211 -73 229 -89T248 -130Q248 -157 228 -178T177 -211T114 -223Z" />
<glyph unicode="&#xb9;" glyph-name="uni00B9" horiz-adv-x="312" d="M17 310Q4 307 4 319Q4 327 10 336T29 350Q39 352 49 352T70 354Q75 354 80 355T90 356Q96 383 112 430T148 530T188 629Q154 597 123 575Q117 572 113 572Q103 572 103 580Q103 588 114 596Q179
652 229 722Q234 730 248 730Q262 730 274 722T283 705Q255 648 224 583T167 459T130 358Q151 358 171 358T210 354Q222 353 222 342Q222 338 218 334T203 329H163Q153 329 143 329T121 328Q113 322 101 322Q95 322 92 324Q56 317 17 310Z" />
<glyph unicode="&#xba;" glyph-name="ordmasculine" horiz-adv-x="577" d="M279 484Q242 484 219 507T196 572Q196 606 212 645T255 720T316 777T384 799Q401 799 417 789T433 755Q433 744 430 740T421 736Q415 736 415 742L416 746Q416 756 412 761T397 767Q381
767 355 748T302 697T257 628T239 554Q239 532 249 517T283 501Q306 501 335 523T387 579Q384 587 384 595Q384 619 403 619Q404 619 406 619T409 618Q420 641 424 655T428 680Q428 694 424 700T420 713Q420 721 427 726T442 731Q466 731 466 694Q466 666 450 634T420
582Q421 568 428 561T446 554Q470 554 489 570T524 606T551 643T572 659Q579 659 579 653Q579 652 579 652V653Q578 655 568 637T541 595T498 551T443 532Q430 532 419 538T402 557Q369 520 340 502T279 484Z" />
<glyph unicode="&#xbb;" glyph-name="guillemotright" horiz-adv-x="379" d="M226 94Q224 92 220 92Q215 92 215 98Q215 101 217 107T227 120Q239 133 248 144T276 175T330 228Q309 269 294 298T273 341Q272 346 271 350T269 358Q269 369 276 369Q283 369 290
357Q307 330 326 307T368 261Q380 250 380 243Q380 239 376 235T363 222Q334 195 315 176T277 139T226 94ZM95 94Q93 92 89 92Q85 92 85 97Q85 105 97 120Q109 133 118 144T145 175T199 228Q179 269 164 298T143 341Q140 350 140 357Q140 368 146 368Q152 368 160
357Q177 330 196 307T238 261Q250 249 250 243Q250 239 246 235T233 222Q204 195 185 176T147 139T95 94Z" />
<glyph unicode="&#xbc;" glyph-name="onequarter" horiz-adv-x="991" d="M175 2Q158 2 164 18Q170 35 195 76T261 177T350 305T452 447T555 588T650 714T725 810T770 862Q778 870 790 873T812 877Q822 877 828 874T835 866Q835 863 830 856Q804 828 761 776T663
656T549 509T430 347T317 184T223 33Q216 18 201 10T175 2ZM17 310Q4 307 4 319Q4 327 10 336T29 350Q39 352 49 352T70 354Q75 354 80 355T90 356Q96 383 112 430T148 530T188 629Q154 597 123 575Q117 572 113 572Q103 572 103 580Q103 588 114 596Q179 652 229
722Q234 730 248 730Q262 730 274 722T283 705Q255 648 224 583T167 459T130 358Q151 358 171 358T210 354Q222 353 222 342Q222 338 218 334T203 329H163Q153 329 143 329T121 328Q113 322 101 322Q95 322 92 324Q56 317 17 310ZM661 -109Q651 -109 647 -102Q645
-90 651 -63T669 0T696 75Q671 77 637 80T573 86Q568 87 563 87T553 88Q530 88 513 78Q510 75 497 65T476 55Q469 55 469 63Q469 80 477 95T503 120Q516 130 540 147T594 186T652 227Q669 239 693 259T744 304T792 351T828 392Q835 405 844 405Q848 405 852 403T861
398Q872 393 878 383T881 365Q854 312 821 249T759 120Q784 123 810 129T854 144T876 166Q878 174 883 177T893 181Q902 181 902 171Q902 157 889 142T863 115Q835 90 803 82T738 73Q720 28 707 -13T686 -96V-100Q677 -109 661 -109ZM713 121Q731 170 748 214T776
284Q730 244 681 206T578 134Q612 134 645 130T713 121Z" />
<glyph unicode="&#xbd;" glyph-name="onehalf" horiz-adv-x="1097" d="M175 2Q158 2 164 18Q170 35 195 76T261 177T350 305T452 447T555 588T650 714T725 810T770 862Q778 870 790 873T812 877Q822 877 828 874T835 866Q835 863 830 856Q804 828 761 776T663
656T549 509T430 347T317 184T223 33Q216 18 201 10T175 2ZM17 310Q4 307 4 319Q4 327 10 336T29 350Q39 352 49 352T70 354Q75 354 80 355T90 356Q96 383 112 430T148 530T188 629Q154 597 123 575Q117 572 113 572Q103 572 103 580Q103 588 114 596Q179 652 229
722Q234 730 248 730Q262 730 274 722T283 705Q255 648 224 583T167 459T130 358Q151 358 171 358T210 354Q222 353 222 342Q222 338 218 334T203 329H163Q153 329 143 329T121 328Q113 322 101 322Q95 322 92 324Q56 317 17 310ZM790 -18Q778 -18 767 -17T744
-13Q737 -12 717 -7T671 5T623 18T590 28Q582 19 566 6T539 -11H535Q531 -11 527 -9T523 1Q524 39 547 51T602 63Q631 80 669 104T747 158T816 219Q841 245 852 267T863 307Q863 333 842 348T785 363Q760 363 733 356Q727 354 711 349T678 336T648 317T635 294Q635
291 637 285Q640 281 640 275Q640 263 630 263Q624 263 619 268Q615 272 613 276T608 284Q605 292 605 300Q605 318 620 334T657 362T700 383T732 393Q747 396 761 397T790 398Q846 398 885 376T925 314Q925 292 911 265T864 206Q834 177 795 150T717 99T644 57Q661
53 677 49T710 40Q726 36 740 33T764 27Q772 26 781 26T798 25Q824 25 846 30T873 45Q876 58 886 58Q898 58 898 45Q898 40 895 33T883 18Q877 14 874 11Q873 11 871 9L866 6Q865 5 865 5T863 4Q846 -8 828 -13T790 -18Z" />
<glyph unicode="&#xbe;" glyph-name="threequarters" horiz-adv-x="1073" d="M255 2Q248 2 244 6T243 18Q249 35 275 76T341 177T430 305T532 447T636 588T730 714T805 810T850 862Q858 870 870 873T892 877Q901 877 907 874T914 866Q914 861 909 856Q883 828
840 776T742 656T628 509T509 347T397 184T303 33Q296 18 281 10T255 2ZM164 262Q140 262 110 267T57 292T34 350Q34 362 40 379T63 397Q72 397 78 391T83 374Q82 369 81 364T79 354Q79 331 93 316T127 295T165 288Q198 289 233 303T297 341T345 399T363 469Q363
490 347 508T295 534Q274 534 254 529Q243 528 234 527T216 526Q203 527 197 534T191 548Q191 558 199 565T221 569Q239 566 260 566Q285 566 314 575T364 603T385 654Q385 678 363 697T302 718Q281 718 253 710T203 686T182 646Q182 638 177 633T165 628Q153 628
153 641Q153 678 175 703T235 741T317 754Q360 754 395 737T441 682Q444 672 444 660Q444 629 423 599T361 549Q388 542 406 520T424 464Q424 418 399 381T335 317T250 276T164 262ZM742 -109Q730 -109 726 -102Q724 -90 730 -63T749 0T775 75Q751 77 717 80T653
86Q648 87 643 87T633 88Q610 88 593 78Q590 75 577 65T555 55Q548 55 548 63Q548 80 557 95T583 120Q596 130 620 147T673 186T731 227Q748 239 772 259T823 304T871 351T907 392Q916 405 924 405Q928 405 932 403T941 398Q953 393 958 383T961 365Q934 312 901
249T839 120Q864 123 889 129T934 144T957 166Q962 181 973 181Q982 181 982 171Q982 157 969 142T943 115Q915 90 883 82T817 73Q800 28 787 -13T766 -96V-100Q757 -109 742 -109ZM793 121Q810 170 828 214T856 284Q813 245 761 206T658 134Q692 134 725 130T793
121Z" />
<glyph unicode="&#xbf;" glyph-name="questiondown" horiz-adv-x="408" d="M331 358Q325 358 325 365T325 382Q325 387 330 396T341 412T352 420Q362 420 374 418T386 403Q386 401 375 390T350 368T331 358ZM144 -163Q104 -163 71 -144T27 -79Q23 -64 23 -46Q23
2 49 41T113 111T187 167Q220 190 248 215T282 268Q283 273 287 275T295 278Q299 278 302 275T303 266Q300 236 270 206T205 145Q170 115 143 87T102 25T87 -61Q87 -95 106 -120T159 -145Q193 -145 225 -125T281 -81Q293 -69 306 -51T331 -17T350 -2Q357 -2 357
-27Q357 -61 343 -89T290 -123Q281 -124 272 -128T255 -136Q233 -147 204 -155T144 -163Z" />
<glyph unicode="&#xc0;" glyph-name="Agrave" horiz-adv-x="847" d="M142 -83Q109 -83 79 -72T30 -37T11 24Q11 33 15 40T24 48Q32 48 32 24Q32 -10 61 -29Q84 -44 123 -44Q162 -44 204 -30T284 10Q329 40 384 96T500 220Q452 225 405 231T309 237Q277 237 245
231T187 206T148 153Q147 149 146 144T144 134Q144 124 149 116Q151 110 151 109Q151 100 143 100Q136 100 132 107Q122 125 122 153Q122 206 141 234T194 272T265 282Q282 282 300 281T337 277Q381 273 428 264T522 244Q574 305 624 367T719 484T794 580Q795 583
798 584Q800 586 801 586Q812 592 829 596T852 601Q862 601 862 590Q862 587 857 579Q807 494 772 405T709 222L707 215Q713 215 719 215T731 214Q774 211 804 223Q826 231 834 246Q837 250 839 250Q844 250 846 245T845 234Q834 215 806 206Q790 199 770 197T727
196H721L709 197H703Q688 142 682 83Q681 78 681 74T681 64Q681 7 712 7Q732 7 759 25T815 69T867 120T901 161Q903 163 907 163Q917 163 913 152Q911 149 896 129T855 80T794 23Q766 1 739 -5T697 -12Q669 -12 653 13T636 79Q636 108 642 139T656 201Q627 204
597 207T537 215Q477 142 418 79T306 -24Q267 -52 226 -67T142 -83ZM660 220Q678 290 702 360T751 489L756 501Q713 441 662 373T557 238Q583 233 609 229T660 220ZM904 671Q898 671 878 679T834 698T790 721T762 738Q758 741 755 744T752 751Q752 760 763 768Q771
774 778 774Q783 774 793 766T817 746Q844 725 865 710T897 689Q912 682 912 675Q912 671 904 671Z" />
<glyph unicode="&#xc1;" glyph-name="Aacute" horiz-adv-x="847" d="M142 -83Q109 -83 79 -72T30 -37T11 24Q11 33 15 40T24 48Q32 48 32 24Q32 -10 61 -29Q84 -44 123 -44Q162 -44 204 -30T284 10Q329 40 384 96T500 220Q452 225 405 231T309 237Q277 237 245
231T187 206T148 153Q147 149 146 144T144 134Q144 124 149 116Q151 110 151 109Q151 100 143 100Q136 100 132 107Q122 125 122 153Q122 206 141 234T194 272T265 282Q282 282 300 281T337 277Q381 273 428 264T522 244Q574 305 624 367T719 484T794 580Q795 583
798 584Q800 586 801 586Q812 592 829 596T852 601Q862 601 862 590Q862 587 857 579Q807 494 772 405T709 222L707 215Q713 215 719 215T731 214Q774 211 804 223Q826 231 834 246Q837 250 839 250Q844 250 846 245T845 234Q834 215 806 206Q790 199 770 197T727
196H721L709 197H703Q688 142 682 83Q681 78 681 74T681 64Q681 7 712 7Q732 7 759 25T815 69T867 120T901 161Q903 163 907 163Q917 163 913 152Q911 149 896 129T855 80T794 23Q766 1 739 -5T697 -12Q669 -12 653 13T636 79Q636 108 642 139T656 201Q627 204
597 207T537 215Q477 142 418 79T306 -24Q267 -52 226 -67T142 -83ZM660 220Q678 290 702 360T751 489L756 501Q713 441 662 373T557 238Q583 233 609 229T660 220ZM806 670Q798 670 798 674Q798 679 813 688Q823 694 844 709T893 745Q907 757 916 764T929 771Q932
771 936 771T946 766Q957 758 957 752Q957 748 955 745T950 737Q943 731 922 720T876 698T831 678T806 670Z" />
<glyph unicode="&#xc2;" glyph-name="Acircumflex" horiz-adv-x="847" d="M142 -83Q109 -83 79 -72T30 -37T11 24Q11 33 15 40T24 48Q32 48 32 24Q32 -10 61 -29Q84 -44 123 -44Q162 -44 204 -30T284 10Q329 40 384 96T500 220Q452 225 405 231T309 237Q277 237
245 231T187 206T148 153Q147 149 146 144T144 134Q144 124 149 116Q151 110 151 109Q151 100 143 100Q136 100 132 107Q122 125 122 153Q122 206 141 234T194 272T265 282Q282 282 300 281T337 277Q381 273 428 264T522 244Q574 305 624 367T719 484T794 580Q795
583 798 584Q800 586 801 586Q812 592 829 596T852 601Q862 601 862 590Q862 587 857 579Q807 494 772 405T709 222L707 215Q713 215 719 215T731 214Q774 211 804 223Q826 231 834 246Q837 250 839 250Q844 250 846 245T845 234Q834 215 806 206Q790 199 770 197T727
196H721L709 197H703Q688 142 682 83Q681 78 681 74T681 64Q681 7 712 7Q732 7 759 25T815 69T867 120T901 161Q903 163 907 163Q917 163 913 152Q911 149 896 129T855 80T794 23Q766 1 739 -5T697 -12Q669 -12 653 13T636 79Q636 108 642 139T656 201Q627 204
597 207T537 215Q477 142 418 79T306 -24Q267 -52 226 -67T142 -83ZM660 220Q678 290 702 360T751 489L756 501Q713 441 662 373T557 238Q583 233 609 229T660 220ZM898 784Q906 784 915 766T933 725T945 693Q947 684 947 680T948 672Q946 663 939 660Q932 666
921 682T897 716T879 744Q862 734 838 715T793 681T762 665Q758 665 758 669Q760 676 774 688Q785 698 803 713T841 745T876 773T898 784Z" />
<glyph unicode="&#xc3;" glyph-name="Atilde" horiz-adv-x="847" d="M142 -83Q109 -83 79 -72T30 -37T11 24Q11 33 15 40T24 48Q32 48 32 24Q32 -10 61 -29Q84 -44 123 -44Q162 -44 204 -30T284 10Q329 40 384 96T500 220Q452 225 405 231T309 237Q277 237 245
231T187 206T148 153Q147 149 146 144T144 134Q144 124 149 116Q151 110 151 109Q151 100 143 100Q136 100 132 107Q122 125 122 153Q122 206 141 234T194 272T265 282Q282 282 300 281T337 277Q381 273 428 264T522 244Q574 305 624 367T719 484T794 580Q795 583
798 584Q800 586 801 586Q812 592 829 596T852 601Q862 601 862 590Q862 587 857 579Q807 494 772 405T709 222L707 215Q713 215 719 215T731 214Q774 211 804 223Q826 231 834 246Q837 250 839 250Q844 250 846 245T845 234Q834 215 806 206Q790 199 770 197T727
196H721L709 197H703Q688 142 682 83Q681 78 681 74T681 64Q681 7 712 7Q732 7 759 25T815 69T867 120T901 161Q903 163 907 163Q917 163 913 152Q911 149 896 129T855 80T794 23Q766 1 739 -5T697 -12Q669 -12 653 13T636 79Q636 108 642 139T656 201Q627 204
597 207T537 215Q477 142 418 79T306 -24Q267 -52 226 -67T142 -83ZM660 220Q678 290 702 360T751 489L756 501Q713 441 662 373T557 238Q583 233 609 229T660 220ZM753 677Q745 677 745 681V682Q762 705 779 725T820 746Q830 746 847 737T884 719T920 709Q930
709 936 716T948 731T958 738Q967 738 967 735V733Q957 713 940 697T903 680Q888 680 873 687T842 702T811 710Q801 710 788 702T766 686T753 677Z" />
<glyph unicode="&#xc4;" glyph-name="Adieresis" horiz-adv-x="847" d="M142 -83Q109 -83 79 -72T30 -37T11 24Q11 33 15 40T24 48Q32 48 32 24Q32 -10 61 -29Q84 -44 123 -44Q162 -44 204 -30T284 10Q329 40 384 96T500 220Q452 225 405 231T309 237Q277 237
245 231T187 206T148 153Q147 149 146 144T144 134Q144 124 149 116Q151 110 151 109Q151 100 143 100Q136 100 132 107Q122 125 122 153Q122 206 141 234T194 272T265 282Q282 282 300 281T337 277Q381 273 428 264T522 244Q574 305 624 367T719 484T794 580Q795
583 798 584Q800 586 801 586Q812 592 829 596T852 601Q862 601 862 590Q862 587 857 579Q807 494 772 405T709 222L707 215Q713 215 719 215T731 214Q774 211 804 223Q826 231 834 246Q837 250 839 250Q844 250 846 245T845 234Q834 215 806 206Q790 199 770 197T727
196H721L709 197H703Q688 142 682 83Q681 78 681 74T681 64Q681 7 712 7Q732 7 759 25T815 69T867 120T901 161Q903 163 907 163Q917 163 913 152Q911 149 896 129T855 80T794 23Q766 1 739 -5T697 -12Q669 -12 653 13T636 79Q636 108 642 139T656 201Q627 204
597 207T537 215Q477 142 418 79T306 -24Q267 -52 226 -67T142 -83ZM660 220Q678 290 702 360T751 489L756 501Q713 441 662 373T557 238Q583 233 609 229T660 220ZM812 672Q801 672 790 674T778 688Q778 691 788 699T811 717T825 728Q837 739 842 739Q844 739
844 737Q844 733 841 726T837 711Q837 703 828 688T812 672ZM912 672Q901 672 890 674T879 688Q879 691 889 699T912 717T926 728Q938 739 943 739Q944 739 944 737Q944 733 941 726T938 711Q938 703 928 688T912 672Z" />
<glyph unicode="&#xc5;" glyph-name="Aring" horiz-adv-x="847" d="M142 -83Q109 -83 79 -72T30 -37T11 24Q11 33 15 40T24 48Q32 48 32 24Q32 -10 61 -29Q84 -44 123 -44Q162 -44 204 -30T284 10Q329 40 384 96T500 220Q452 225 405 231T309 237Q277 237 245
231T187 206T148 153Q147 149 146 144T144 134Q144 124 149 116Q151 110 151 109Q151 100 143 100Q136 100 132 107Q122 125 122 153Q122 206 141 234T194 272T265 282Q282 282 300 281T337 277Q381 273 428 264T522 244Q574 305 624 367T719 484T794 580Q795 583
798 584Q800 586 801 586Q812 592 829 596T852 601Q862 601 862 590Q862 587 857 579Q807 494 772 405T709 222L707 215Q713 215 719 215T731 214Q774 211 804 223Q826 231 834 246Q837 250 839 250Q844 250 846 245T845 234Q834 215 806 206Q790 199 770 197T727
196H721L709 197H703Q688 142 682 83Q681 78 681 74T681 64Q681 7 712 7Q732 7 759 25T815 69T867 120T901 161Q903 163 907 163Q917 163 913 152Q911 149 896 129T855 80T794 23Q766 1 739 -5T697 -12Q669 -12 653 13T636 79Q636 108 642 139T656 201Q627 204
597 207T537 215Q477 142 418 79T306 -24Q267 -52 226 -67T142 -83ZM660 220Q678 290 702 360T751 489L756 501Q713 441 662 373T557 238Q583 233 609 229T660 220ZM872 665Q847 665 828 677T808 714Q808 722 816 740T846 773T907 788Q927 788 945 779T963 746Q963
727 951 708T918 677T872 665ZM872 678Q897 678 918 698T939 744Q939 756 932 766T905 776Q888 776 872 764T846 736T836 707Q836 695 844 687T872 678Z" />
<glyph unicode="&#xc6;" glyph-name="AE" horiz-adv-x="852" d="M23 -72Q17 -72 10 -61T1 -46Q0 -41 0 -37T0 -28Q0 0 8 35T30 105T58 171T84 221H64Q44 221 44 236Q44 243 52 249T76 257Q86 257 94 258T106 260Q122 284 152 321T221 400T302 478T387 538T464
561Q471 561 484 559T509 551T524 537Q564 546 609 547T696 549Q723 549 751 548T804 545Q805 545 806 545T810 546Q821 548 830 545T839 533Q839 527 833 521Q827 515 816 507T793 488Q777 472 765 454T753 418Q753 408 759 397Q759 396 759 396T760 394Q760 387
753 387Q749 387 743 393Q736 400 736 426Q736 441 739 458T750 490Q755 498 762 508T779 527Q741 526 701 521T628 509T578 493Q571 489 557 469T526 421T492 361T460 301T437 256Q500 255 553 255T634 255Q639 255 647 254T656 245Q656 237 640 236T590 232Q561
230 516 229T425 227Q417 205 411 178T405 124Q405 94 415 68T449 25T516 9Q572 9 633 27T749 77T841 152Q844 155 846 155Q853 155 853 144Q853 139 850 136Q821 100 769 63T645 1T487 -24Q436 -24 406 -8T364 36T351 97Q351 128 359 161T379 226Q351 226 329
226T296 225Q295 225 295 225T292 225H125Q102 186 81 133T45 27T28 -62Q27 -63 27 -67T23 -72ZM391 256Q409 296 431 333T472 410T492 495Q494 522 485 531T470 544Q402 525 342 479T232 374T141 257H189Q232 257 284 257T391 256Z" />
<glyph unicode="&#xc7;" glyph-name="Ccedilla" horiz-adv-x="534" d="M211 -46Q159 -46 116 -29T47 25T21 119Q21 151 30 188Q44 247 76 306T154 417T254 509T365 573T480 597Q497 597 515 594Q555 587 574 565T594 513Q594 479 572 445T515 381T438 326T356
287T285 270Q266 269 266 281Q266 287 272 293T291 301Q369 308 436 348T540 459Q548 474 552 489T557 519Q557 541 545 556T501 572Q467 572 421 552T325 494T226 407T139 297T79 171Q66 131 66 97Q66 36 108 8T217 -21Q275 -21 344 -1T480 60T591 166Q594 170
598 170Q602 170 605 166T606 158Q554 86 487 41T347 -25T211 -46ZM116 -8Q93 -8 73 1T43 30Q40 36 40 39Q40 44 43 44T48 43Q52 36 68 21T108 6Q134 6 158 16T197 44T212 85Q212 102 202 112T172 123Q161 123 148 120T127 117Q120 117 120 121Q120 124 130 140T153
175T179 209T196 224Q205 224 205 217Q205 216 198 206T182 181T164 156T152 139Q160 141 165 141T178 142Q213 142 231 126T250 85Q250 58 230 37T179 4T116 -8Z" />
<glyph unicode="&#xc8;" glyph-name="Egrave" horiz-adv-x="716" d="M251 -62Q209 -62 169 -55T96 -32T44 14T24 90Q24 140 48 174T111 230T195 264T284 281T361 288Q331 323 307 376T283 479Q283 497 287 514T300 546Q310 564 332 576T380 596T428 603Q465 603
489 584T534 544Q539 539 546 533T563 523Q567 522 572 522T582 518Q590 511 596 497T607 472Q613 456 613 430Q613 410 609 393T595 376Q590 376 582 385Q570 399 565 422T550 465Q538 491 524 513T490 551Q482 560 467 569T431 578Q416 578 406 573Q371 559 357
527T342 457Q342 411 357 366T391 296Q396 290 415 289T443 285Q459 284 466 278T473 265Q473 254 460 246Q455 241 443 241Q426 241 405 247T370 257Q340 256 301 247T222 222T147 181T91 127T68 60Q67 20 99 -9T216 -38Q256 -38 302 -31T392 -13T475 12T537 38Q556
47 583 65T636 108T680 157T698 207Q698 209 698 212T697 217Q696 221 701 221T708 219Q722 199 722 175Q722 143 700 112T646 56T589 17Q558 -1 515 -15T424 -40T331 -56T251 -62ZM497 681Q491 681 471 689T427 708T383 731T355 748Q351 751 348 754T345 761Q345
770 356 778Q364 784 371 784Q376 784 386 776T410 756Q437 735 458 720T490 699Q505 692 505 685Q505 681 497 681Z" />
<glyph unicode="&#xc9;" glyph-name="Eacute" horiz-adv-x="716" d="M251 -62Q209 -62 169 -55T96 -32T44 14T24 90Q24 140 48 174T111 230T195 264T284 281T361 288Q331 323 307 376T283 479Q283 497 287 514T300 546Q310 564 332 576T380 596T428 603Q465 603
489 584T534 544Q539 539 546 533T563 523Q567 522 572 522T582 518Q590 511 596 497T607 472Q613 456 613 430Q613 410 609 393T595 376Q590 376 582 385Q570 399 565 422T550 465Q538 491 524 513T490 551Q482 560 467 569T431 578Q416 578 406 573Q371 559 357
527T342 457Q342 411 357 366T391 296Q396 290 415 289T443 285Q459 284 466 278T473 265Q473 254 460 246Q455 241 443 241Q426 241 405 247T370 257Q340 256 301 247T222 222T147 181T91 127T68 60Q67 20 99 -9T216 -38Q256 -38 302 -31T392 -13T475 12T537 38Q556
47 583 65T636 108T680 157T698 207Q698 209 698 212T697 217Q696 221 701 221T708 219Q722 199 722 175Q722 143 700 112T646 56T589 17Q558 -1 515 -15T424 -40T331 -56T251 -62ZM399 680Q391 680 391 684Q391 689 406 698Q416 704 437 719T486 755Q500 767 509
774T522 781Q525 781 529 781T539 776Q550 768 550 762Q550 758 548 755T543 747Q536 741 515 730T469 708T424 688T399 680Z" />
<glyph unicode="&#xca;" glyph-name="Ecircumflex" horiz-adv-x="716" d="M251 -62Q209 -62 169 -55T96 -32T44 14T24 90Q24 140 48 174T111 230T195 264T284 281T361 288Q331 323 307 376T283 479Q283 497 287 514T300 546Q310 564 332 576T380 596T428 603Q465
603 489 584T534 544Q539 539 546 533T563 523Q567 522 572 522T582 518Q590 511 596 497T607 472Q613 456 613 430Q613 410 609 393T595 376Q590 376 582 385Q570 399 565 422T550 465Q538 491 524 513T490 551Q482 560 467 569T431 578Q416 578 406 573Q371 559
357 527T342 457Q342 411 357 366T391 296Q396 290 415 289T443 285Q459 284 466 278T473 265Q473 254 460 246Q455 241 443 241Q426 241 405 247T370 257Q340 256 301 247T222 222T147 181T91 127T68 60Q67 20 99 -9T216 -38Q256 -38 302 -31T392 -13T475 12T537
38Q556 47 583 65T636 108T680 157T698 207Q698 209 698 212T697 217Q696 221 701 221T708 219Q722 199 722 175Q722 143 700 112T646 56T589 17Q558 -1 515 -15T424 -40T331 -56T251 -62ZM491 794Q499 794 508 776T526 735T538 703Q540 694 540 690T541 682Q539
673 532 670Q525 676 514 692T490 726T472 754Q455 744 431 725T386 691T355 675Q351 675 351 679Q353 686 367 698Q378 708 396 723T434 755T469 783T491 794Z" />
<glyph unicode="&#xcb;" glyph-name="Edieresis" horiz-adv-x="716" d="M251 -62Q209 -62 169 -55T96 -32T44 14T24 90Q24 140 48 174T111 230T195 264T284 281T361 288Q331 323 307 376T283 479Q283 497 287 514T300 546Q310 564 332 576T380 596T428 603Q465
603 489 584T534 544Q539 539 546 533T563 523Q567 522 572 522T582 518Q590 511 596 497T607 472Q613 456 613 430Q613 410 609 393T595 376Q590 376 582 385Q570 399 565 422T550 465Q538 491 524 513T490 551Q482 560 467 569T431 578Q416 578 406 573Q371 559
357 527T342 457Q342 411 357 366T391 296Q396 290 415 289T443 285Q459 284 466 278T473 265Q473 254 460 246Q455 241 443 241Q426 241 405 247T370 257Q340 256 301 247T222 222T147 181T91 127T68 60Q67 20 99 -9T216 -38Q256 -38 302 -31T392 -13T475 12T537
38Q556 47 583 65T636 108T680 157T698 207Q698 209 698 212T697 217Q696 221 701 221T708 219Q722 199 722 175Q722 143 700 112T646 56T589 17Q558 -1 515 -15T424 -40T331 -56T251 -62ZM406 681Q395 681 384 683T372 697Q372 700 382 708T405 726T419 737Q431
748 436 748Q438 748 438 746Q438 742 435 735T431 720Q431 712 422 697T406 681ZM506 681Q495 681 484 683T473 697Q473 700 483 708T506 726T520 737Q532 748 537 748Q538 748 538 746Q538 742 535 735T532 720Q532 712 522 697T506 681Z" />
<glyph unicode="&#xcc;" glyph-name="Igrave" horiz-adv-x="430" d="M52 -9Q31 -9 20 -6T8 11Q8 16 9 21T13 34Q18 45 30 50T52 56Q62 56 70 51Q84 41 103 34T143 26Q167 26 192 37T239 80Q269 119 295 177T342 301T381 427T409 534Q357 530 308 517T228 479T196
418Q196 398 207 386T232 366T256 354Q263 350 263 347Q263 341 254 345Q242 348 224 358T191 387T175 428Q175 430 174 434T172 441Q170 479 191 505T249 547T330 571T420 579L424 589Q426 594 435 597T455 601Q465 601 471 598T478 590Q478 585 473 577Q506 574
533 567T580 550Q587 547 596 538T606 522Q606 517 598 517Q594 517 588 518T574 522Q555 529 525 532T459 535Q444 489 424 426T378 296T322 167T259 63Q249 53 240 43T221 25Q276 24 321 26T398 29H404Q415 29 415 24Q415 19 409 13T399 5Q394 3 365 1T292 -3T201
-6T114 -8T52 -9ZM505 671Q499 671 479 679T435 698T391 721T363 738Q359 741 356 744T353 751Q353 760 364 768Q372 774 379 774Q384 774 394 766T418 746Q445 725 466 710T498 689Q513 682 513 675Q513 671 505 671Z" />
<glyph unicode="&#xcd;" glyph-name="Iacute" horiz-adv-x="430" d="M52 -9Q31 -9 20 -6T8 11Q8 16 9 21T13 34Q18 45 30 50T52 56Q62 56 70 51Q84 41 103 34T143 26Q167 26 192 37T239 80Q269 119 295 177T342 301T381 427T409 534Q357 530 308 517T228 479T196
418Q196 398 207 386T232 366T256 354Q263 350 263 347Q263 341 254 345Q242 348 224 358T191 387T175 428Q175 430 174 434T172 441Q170 479 191 505T249 547T330 571T420 579L424 589Q426 594 435 597T455 601Q465 601 471 598T478 590Q478 585 473 577Q506 574
533 567T580 550Q587 547 596 538T606 522Q606 517 598 517Q594 517 588 518T574 522Q555 529 525 532T459 535Q444 489 424 426T378 296T322 167T259 63Q249 53 240 43T221 25Q276 24 321 26T398 29H404Q415 29 415 24Q415 19 409 13T399 5Q394 3 365 1T292 -3T201
-6T114 -8T52 -9ZM407 670Q399 670 399 674Q399 679 414 688Q424 694 445 709T494 745Q508 757 517 764T530 771Q533 771 537 771T547 766Q558 758 558 752Q558 748 556 745T551 737Q544 731 523 720T477 698T432 678T407 670Z" />
<glyph unicode="&#xce;" glyph-name="Icircumflex" horiz-adv-x="430" d="M52 -9Q31 -9 20 -6T8 11Q8 16 9 21T13 34Q18 45 30 50T52 56Q62 56 70 51Q84 41 103 34T143 26Q167 26 192 37T239 80Q269 119 295 177T342 301T381 427T409 534Q357 530 308 517T228
479T196 418Q196 398 207 386T232 366T256 354Q263 350 263 347Q263 341 254 345Q242 348 224 358T191 387T175 428Q175 430 174 434T172 441Q170 479 191 505T249 547T330 571T420 579L424 589Q426 594 435 597T455 601Q465 601 471 598T478 590Q478 585 473 577Q506
574 533 567T580 550Q587 547 596 538T606 522Q606 517 598 517Q594 517 588 518T574 522Q555 529 525 532T459 535Q444 489 424 426T378 296T322 167T259 63Q249 53 240 43T221 25Q276 24 321 26T398 29H404Q415 29 415 24Q415 19 409 13T399 5Q394 3 365 1T292
-3T201 -6T114 -8T52 -9ZM499 784Q507 784 516 766T534 725T546 693Q548 684 548 680T549 672Q547 663 540 660Q533 666 522 682T498 716T480 744Q463 734 439 715T394 681T363 665Q359 665 359 669Q361 676 375 688Q386 698 404 713T442 745T477 773T499 784Z"
/>
<glyph unicode="&#xcf;" glyph-name="Idieresis" horiz-adv-x="430" d="M52 -9Q31 -9 20 -6T8 11Q8 16 9 21T13 34Q18 45 30 50T52 56Q62 56 70 51Q84 41 103 34T143 26Q167 26 192 37T239 80Q269 119 295 177T342 301T381 427T409 534Q357 530 308 517T228 479T196
418Q196 398 207 386T232 366T256 354Q263 350 263 347Q263 341 254 345Q242 348 224 358T191 387T175 428Q175 430 174 434T172 441Q170 479 191 505T249 547T330 571T420 579L424 589Q426 594 435 597T455 601Q465 601 471 598T478 590Q478 585 473 577Q506 574
533 567T580 550Q587 547 596 538T606 522Q606 517 598 517Q594 517 588 518T574 522Q555 529 525 532T459 535Q444 489 424 426T378 296T322 167T259 63Q249 53 240 43T221 25Q276 24 321 26T398 29H404Q415 29 415 24Q415 19 409 13T399 5Q394 3 365 1T292 -3T201
-6T114 -8T52 -9ZM414 671Q403 671 392 673T380 687Q380 690 390 698T413 716T427 727Q439 738 444 738Q446 738 446 736Q446 732 443 725T439 710Q439 702 430 687T414 671ZM514 671Q503 671 492 673T481 687Q481 690 491 698T514 716T528 727Q540 738 545 738Q546
738 546 736Q546 732 543 725T540 710Q540 702 530 687T514 671Z" />
<glyph unicode="&#xd0;" glyph-name="Eth" horiz-adv-x="567" d="M186 -11Q155 -11 125 -6T70 10L69 6Q60 -1 44 -1Q31 -1 30 6Q30 11 31 17T34 34Q22 44 17 56Q16 60 16 63T15 70Q15 85 23 85Q25 85 30 80Q33 76 36 73T42 66Q50 95 64 133T94 212L46 210Q23 209
23 221Q23 229 34 238T55 248H106Q128 303 149 353T188 439T212 484Q216 488 224 488Q238 488 254 480T266 463Q237 405 208 353T152 248H204Q228 248 242 244T257 234Q258 228 247 225T222 221T205 220Q191 219 173 218T137 215Q118 174 102 131T75 39Q98 24 126
17T184 10Q245 10 309 35T427 106T514 213T548 346Q548 414 516 453T433 510T324 527Q277 527 227 518T129 495Q119 493 107 501T94 519Q94 530 109 535Q137 546 166 549T238 557Q248 558 258 558T278 558Q322 558 364 552T444 532Q524 502 559 447T595 329Q595
251 558 189T461 82T328 13T186 -11Z" />
<glyph unicode="&#xd1;" glyph-name="Ntilde" horiz-adv-x="784" d="M-88 -129Q-105 -129 -120 -125Q-161 -111 -171 -69Q-172 -66 -172 -60Q-172 -46 -166 -46Q-161 -46 -154 -64Q-147 -92 -120 -98Q-114 -100 -105 -101T-88 -102Q-51 -102 -18 -81T44 -28T96
39T134 102Q178 186 208 272T266 453Q237 427 202 414T136 398H135Q125 398 125 405Q125 413 137 415Q166 420 197 439T254 489T295 554Q297 560 309 563T333 567Q344 567 352 564T359 554Q355 543 353 520T348 483Q345 465 345 431Q345 388 350 330T366 211T396
97T439 12T499 -21Q534 -21 565 13T621 102T664 221T691 347T701 455Q701 480 698 498Q694 525 687 544T671 585V586Q671 590 679 596T691 604Q706 604 718 590T742 556T764 515T788 483Q796 476 800 474T815 472L821 475Q829 475 832 474T836 464Q836 456 829
451T813 444Q800 444 780 457T750 479Q751 473 751 467T751 455Q751 400 737 333T699 197T642 72T571 -20T492 -55Q444 -55 411 -26T355 52T319 160T301 280T296 395Q265 314 235 242T164 97Q146 64 121 26T63 -48T-7 -106T-88 -129ZM407 680Q399 680 399 684V685Q416
708 433 728T474 749Q484 749 501 740T538 722T574 712Q584 712 590 719T602 734T612 741Q621 741 621 738V736Q611 716 594 700T557 683Q542 683 527 690T496 705T465 713Q455 713 442 705T420 689T407 680Z" />
<glyph unicode="&#xd2;" glyph-name="Ograve" horiz-adv-x="705" d="M316 -72Q246 -72 198 -37T124 53T99 173Q99 237 125 300T205 411T341 478Q352 480 363 481T387 483Q409 483 430 477T466 455Q477 445 477 441T475 437Q472 437 468 440T458 444Q440 451 418
451Q412 451 407 451T396 449Q337 435 291 401T212 320T162 222T145 122Q145 75 162 36T214 -26T305 -49Q320 -49 337 -47T373 -41Q413 -32 454 -3T534 70T601 165T648 272T666 379Q666 479 611 528T461 578Q399 578 338 556T232 501Q187 470 151 428T91 338T63
242Q63 231 58 231Q54 231 50 240T46 260Q46 316 69 367T133 461T224 535T330 584T439 602Q519 603 581 573T680 486T716 348Q716 269 687 200T609 77T502 -14T385 -63Q366 -68 350 -70T316 -72ZM571 673Q565 673 545 681T501 700T457 723T429 740Q425 743 422
746T419 753Q419 762 430 770Q438 776 445 776Q450 776 460 768T484 748Q511 727 532 712T564 691Q579 684 579 677Q579 673 571 673Z" />
<glyph unicode="&#xd3;" glyph-name="Oacute" horiz-adv-x="705" d="M316 -72Q246 -72 198 -37T124 53T99 173Q99 237 125 300T205 411T341 478Q352 480 363 481T387 483Q409 483 430 477T466 455Q477 445 477 441T475 437Q472 437 468 440T458 444Q440 451 418
451Q412 451 407 451T396 449Q337 435 291 401T212 320T162 222T145 122Q145 75 162 36T214 -26T305 -49Q320 -49 337 -47T373 -41Q413 -32 454 -3T534 70T601 165T648 272T666 379Q666 479 611 528T461 578Q399 578 338 556T232 501Q187 470 151 428T91 338T63
242Q63 231 58 231Q54 231 50 240T46 260Q46 316 69 367T133 461T224 535T330 584T439 602Q519 603 581 573T680 486T716 348Q716 269 687 200T609 77T502 -14T385 -63Q366 -68 350 -70T316 -72ZM473 672Q465 672 465 676Q465 681 480 690Q490 696 511 711T560
747Q574 759 583 766T596 773Q599 773 603 773T613 768Q624 760 624 754Q624 750 622 747T617 739Q610 733 589 722T543 700T498 680T473 672Z" />
<glyph unicode="&#xd4;" glyph-name="Ocircumflex" horiz-adv-x="705" d="M316 -72Q246 -72 198 -37T124 53T99 173Q99 237 125 300T205 411T341 478Q352 480 363 481T387 483Q409 483 430 477T466 455Q477 445 477 441T475 437Q472 437 468 440T458 444Q440 451
418 451Q412 451 407 451T396 449Q337 435 291 401T212 320T162 222T145 122Q145 75 162 36T214 -26T305 -49Q320 -49 337 -47T373 -41Q413 -32 454 -3T534 70T601 165T648 272T666 379Q666 479 611 528T461 578Q399 578 338 556T232 501Q187 470 151 428T91 338T63
242Q63 231 58 231Q54 231 50 240T46 260Q46 316 69 367T133 461T224 535T330 584T439 602Q519 603 581 573T680 486T716 348Q716 269 687 200T609 77T502 -14T385 -63Q366 -68 350 -70T316 -72ZM565 786Q573 786 582 768T600 727T612 695Q614 686 614 682T615
674Q613 665 606 662Q599 668 588 684T564 718T546 746Q529 736 505 717T460 683T429 667Q425 667 425 671Q427 678 441 690Q452 700 470 715T508 747T543 775T565 786Z" />
<glyph unicode="&#xd5;" glyph-name="Otilde" horiz-adv-x="705" d="M316 -72Q246 -72 198 -37T124 53T99 173Q99 237 125 300T205 411T341 478Q352 480 363 481T387 483Q409 483 430 477T466 455Q477 445 477 441T475 437Q472 437 468 440T458 444Q440 451 418
451Q412 451 407 451T396 449Q337 435 291 401T212 320T162 222T145 122Q145 75 162 36T214 -26T305 -49Q320 -49 337 -47T373 -41Q413 -32 454 -3T534 70T601 165T648 272T666 379Q666 479 611 528T461 578Q399 578 338 556T232 501Q187 470 151 428T91 338T63
242Q63 231 58 231Q54 231 50 240T46 260Q46 316 69 367T133 461T224 535T330 584T439 602Q519 603 581 573T680 486T716 348Q716 269 687 200T609 77T502 -14T385 -63Q366 -68 350 -70T316 -72ZM420 679Q412 679 412 683V684Q429 707 446 727T487 748Q497 748
514 739T551 721T587 711Q597 711 603 718T615 733T625 740Q634 740 634 737V735Q624 715 607 699T570 682Q555 682 540 689T509 704T478 712Q468 712 455 704T433 688T420 679Z" />
<glyph unicode="&#xd6;" glyph-name="Odieresis" horiz-adv-x="705" d="M316 -72Q246 -72 198 -37T124 53T99 173Q99 237 125 300T205 411T341 478Q352 480 363 481T387 483Q409 483 430 477T466 455Q477 445 477 441T475 437Q472 437 468 440T458 444Q440 451
418 451Q412 451 407 451T396 449Q337 435 291 401T212 320T162 222T145 122Q145 75 162 36T214 -26T305 -49Q320 -49 337 -47T373 -41Q413 -32 454 -3T534 70T601 165T648 272T666 379Q666 479 611 528T461 578Q399 578 338 556T232 501Q187 470 151 428T91 338T63
242Q63 231 58 231Q54 231 50 240T46 260Q46 316 69 367T133 461T224 535T330 584T439 602Q519 603 581 573T680 486T716 348Q716 269 687 200T609 77T502 -14T385 -63Q366 -68 350 -70T316 -72ZM480 673Q469 673 458 675T446 689Q446 692 456 700T479 718T493
729Q505 740 510 740Q512 740 512 738Q512 734 509 727T505 712Q505 704 496 689T480 673ZM580 673Q569 673 558 675T547 689Q547 692 557 700T580 718T594 729Q606 740 611 740Q612 740 612 738Q612 734 609 727T606 712Q606 704 596 689T580 673Z" />
<glyph unicode="&#xd7;" glyph-name="multiply" horiz-adv-x="466" d="M33 -2Q21 -2 21 6Q21 14 38 35T86 84T153 146T229 212Q201 246 166 282T85 359Q79 365 79 369Q79 382 97 382Q114 382 157 340T254 232Q302 273 343 306T412 360T449 380Q457 380 464 375T472
363Q472 357 451 341T398 303T332 257T271 212Q306 171 339 129T394 55T416 12Q416 7 410 4T395 0Q377 0 369 11Q347 49 319 94T248 192Q203 155 156 111T56 10Q51 3 45 1T33 -2Z" />
<glyph unicode="&#xd8;" glyph-name="Oslash" horiz-adv-x="613" d="M123 -53Q112 -53 115 -42Q118 -36 125 -23T145 10Q112 35 96 72T80 153Q80 203 100 255Q73 266 64 299Q61 313 61 327Q61 370 84 408T142 477T214 522Q249 536 291 544T376 553Q413 553 448
547T513 523Q525 538 529 541Q534 546 542 548T557 550Q565 550 569 547T568 538Q563 531 556 523T540 505L541 504Q577 468 597 423T618 324Q618 268 591 206Q563 142 515 90T403 6T267 -25Q239 -25 215 -20T171 -6Q167 -13 163 -20T153 -34Q148 -42 139 -47T123
-53ZM112 281Q135 334 181 379Q207 403 246 424T328 456T406 464Q437 462 450 443Q466 463 478 479T500 509Q477 521 449 526T391 532Q339 532 286 517T190 472T121 401T100 310Q101 302 103 294T112 281ZM246 4Q307 4 367 35T478 119T555 234Q587 310 587 370Q587
449 533 489L529 492Q497 453 453 396T360 272T265 139T182 13Q208 4 246 4ZM158 29Q182 67 216 116T288 219T364 326T436 424Q428 429 417 430T397 432Q338 432 277 397T172 308Q164 298 157 287T143 265Q146 263 152 263Q162 262 162 259Q162 255 152 252Q148
251 144 251T136 250Q124 223 117 194T110 137Q110 104 121 76T158 29Z" />
<glyph unicode="&#xd9;" glyph-name="Ugrave" horiz-adv-x="526" d="M452 -188Q416 -188 398 -160T374 -91Q372 -76 371 -60T369 -25Q369 10 373 50T384 134Q346 97 302 62T210 3T114 -20Q89 -20 70 -5T45 45Q44 52 44 58T43 72Q43 116 58 164T95 260T141 356T181
443Q183 446 183 448T183 452Q183 456 180 456Q174 456 158 443Q124 415 88 395T21 373H20Q11 373 11 379Q11 388 24 390Q41 392 65 405T117 439T168 480T210 520T233 548Q235 553 247 557T272 561Q283 561 291 558T297 548Q290 537 271 505T226 427T175 329T130
227T102 135Q100 122 99 111T98 88Q98 48 112 32T147 15Q173 15 204 29T268 67T332 118T388 170Q398 235 412 297T443 411T476 495Q500 547 533 577T612 606Q646 603 659 585T672 543Q672 525 666 505Q653 461 626 417T564 329T496 246T435 171Q430 144 426 110T419
42T416 -15Q416 -112 449 -153Q461 -168 477 -168Q489 -168 498 -158Q502 -150 510 -142Q516 -136 520 -136Q527 -136 524 -149Q523 -153 520 -158T511 -169Q504 -178 486 -183T452 -188ZM450 234Q486 268 523 317T591 420T635 522Q637 530 638 537T639 551Q639
580 621 580Q606 580 584 557Q529 496 500 414T450 234ZM495 641Q489 641 469 649T425 668T381 691T353 708Q349 711 346 714T343 721Q343 730 354 738Q362 744 369 744Q374 744 384 736T408 716Q435 695 456 680T488 659Q503 652 503 645Q503 641 495 641Z" />
<glyph unicode="&#xda;" glyph-name="Uacute" horiz-adv-x="526" d="M452 -188Q416 -188 398 -160T374 -91Q372 -76 371 -60T369 -25Q369 10 373 50T384 134Q346 97 302 62T210 3T114 -20Q89 -20 70 -5T45 45Q44 52 44 58T43 72Q43 116 58 164T95 260T141 356T181
443Q183 446 183 448T183 452Q183 456 180 456Q174 456 158 443Q124 415 88 395T21 373H20Q11 373 11 379Q11 388 24 390Q41 392 65 405T117 439T168 480T210 520T233 548Q235 553 247 557T272 561Q283 561 291 558T297 548Q290 537 271 505T226 427T175 329T130
227T102 135Q100 122 99 111T98 88Q98 48 112 32T147 15Q173 15 204 29T268 67T332 118T388 170Q398 235 412 297T443 411T476 495Q500 547 533 577T612 606Q646 603 659 585T672 543Q672 525 666 505Q653 461 626 417T564 329T496 246T435 171Q430 144 426 110T419
42T416 -15Q416 -112 449 -153Q461 -168 477 -168Q489 -168 498 -158Q502 -150 510 -142Q516 -136 520 -136Q527 -136 524 -149Q523 -153 520 -158T511 -169Q504 -178 486 -183T452 -188ZM450 234Q486 268 523 317T591 420T635 522Q637 530 638 537T639 551Q639
580 621 580Q606 580 584 557Q529 496 500 414T450 234ZM397 640Q389 640 389 644Q389 649 404 658Q414 664 435 679T484 715Q498 727 507 734T520 741Q523 741 527 741T537 736Q548 728 548 722Q548 718 546 715T541 707Q534 701 513 690T467 668T422 648T397
640Z" />
<glyph unicode="&#xdb;" glyph-name="Ucircumflex" horiz-adv-x="526" d="M452 -188Q416 -188 398 -160T374 -91Q372 -76 371 -60T369 -25Q369 10 373 50T384 134Q346 97 302 62T210 3T114 -20Q89 -20 70 -5T45 45Q44 52 44 58T43 72Q43 116 58 164T95 260T141
356T181 443Q183 446 183 448T183 452Q183 456 180 456Q174 456 158 443Q124 415 88 395T21 373H20Q11 373 11 379Q11 388 24 390Q41 392 65 405T117 439T168 480T210 520T233 548Q235 553 247 557T272 561Q283 561 291 558T297 548Q290 537 271 505T226 427T175
329T130 227T102 135Q100 122 99 111T98 88Q98 48 112 32T147 15Q173 15 204 29T268 67T332 118T388 170Q398 235 412 297T443 411T476 495Q500 547 533 577T612 606Q646 603 659 585T672 543Q672 525 666 505Q653 461 626 417T564 329T496 246T435 171Q430 144
426 110T419 42T416 -15Q416 -112 449 -153Q461 -168 477 -168Q489 -168 498 -158Q502 -150 510 -142Q516 -136 520 -136Q527 -136 524 -149Q523 -153 520 -158T511 -169Q504 -178 486 -183T452 -188ZM450 234Q486 268 523 317T591 420T635 522Q637 530 638 537T639
551Q639 580 621 580Q606 580 584 557Q529 496 500 414T450 234ZM489 754Q497 754 506 736T524 695T536 663Q538 654 538 650T539 642Q537 633 530 630Q523 636 512 652T488 686T470 714Q453 704 429 685T384 651T353 635Q349 635 349 639Q351 646 365 658Q376
668 394 683T432 715T467 743T489 754Z" />
<glyph unicode="&#xdc;" glyph-name="Udieresis" horiz-adv-x="526" d="M452 -188Q416 -188 398 -160T374 -91Q372 -76 371 -60T369 -25Q369 10 373 50T384 134Q346 97 302 62T210 3T114 -20Q89 -20 70 -5T45 45Q44 52 44 58T43 72Q43 116 58 164T95 260T141 356T181
443Q183 446 183 448T183 452Q183 456 180 456Q174 456 158 443Q124 415 88 395T21 373H20Q11 373 11 379Q11 388 24 390Q41 392 65 405T117 439T168 480T210 520T233 548Q235 553 247 557T272 561Q283 561 291 558T297 548Q290 537 271 505T226 427T175 329T130
227T102 135Q100 122 99 111T98 88Q98 48 112 32T147 15Q173 15 204 29T268 67T332 118T388 170Q398 235 412 297T443 411T476 495Q500 547 533 577T612 606Q646 603 659 585T672 543Q672 525 666 505Q653 461 626 417T564 329T496 246T435 171Q430 144 426 110T419
42T416 -15Q416 -112 449 -153Q461 -168 477 -168Q489 -168 498 -158Q502 -150 510 -142Q516 -136 520 -136Q527 -136 524 -149Q523 -153 520 -158T511 -169Q504 -178 486 -183T452 -188ZM450 234Q486 268 523 317T591 420T635 522Q637 530 638 537T639 551Q639
580 621 580Q606 580 584 557Q529 496 500 414T450 234ZM404 641Q393 641 382 643T370 657Q370 660 380 668T403 686T417 697Q429 708 434 708Q436 708 436 706Q436 702 433 695T429 680Q429 672 420 657T404 641ZM504 641Q493 641 482 643T471 657Q471 660 481
668T504 686T518 697Q530 708 535 708Q536 708 536 706Q536 702 533 695T530 680Q530 672 520 657T504 641Z" />
<glyph unicode="&#xdd;" glyph-name="Yacute" horiz-adv-x="526" d="M87 -370Q51 -370 30 -350T8 -295Q8 -269 22 -236T70 -165Q138 -87 221 -37T402 44Q408 61 419 100T444 191T473 297Q434 237 389 181T297 79T203 7T114 -20Q89 -20 70 -5T45 45Q44 52 44 58T43
72Q43 116 58 164T95 260T141 356T181 443Q183 446 183 448T183 452Q183 456 180 456Q174 456 158 443Q124 415 88 395T21 373H20Q11 373 11 379Q11 388 24 390Q41 392 65 405T117 439T168 480T210 520T233 548Q235 553 247 557T272 561Q283 561 291 558T297 548Q290
537 271 505T226 426T175 329T130 227T102 135Q100 122 99 111T98 88Q98 48 112 32T147 15Q181 15 221 42T303 116T386 220T461 339T523 455Q531 472 536 486T549 513Q553 521 556 526T563 534Q575 554 597 561T641 569Q660 569 673 567T693 563Q703 562 703 554Q703
550 699 547T688 543Q649 547 625 518T578 432Q570 413 558 374T530 287T501 192T475 109T458 58Q508 72 535 72Q546 72 550 69Q553 66 553 62Q553 58 551 56T545 55Q541 57 533 57Q520 57 501 53T465 41T444 24Q387 -121 322 -207T195 -332T87 -370ZM115 -344Q152
-344 188 -316T257 -242T317 -146T365 -49T396 25Q314 -2 244 -47T119 -160Q88 -197 75 -229T62 -286Q62 -313 76 -328T115 -344ZM404 634Q396 634 396 638Q396 643 411 652Q421 658 442 673T491 709Q505 721 514 728T527 735Q530 735 534 735T544 730Q555 722
555 716Q555 712 553 709T548 701Q541 695 520 684T474 662T429 642T404 634Z" />
<glyph unicode="&#xde;" glyph-name="Thorn" horiz-adv-x="453" d="M44 -1Q31 -1 30 6Q29 18 38 51T64 131T101 233T143 343T185 448Q136 436 94 418T25 386Q21 385 17 384T12 393Q12 414 37 433T105 466T201 486Q221 533 235 564T256 603Q259 606 266 606Q275
606 286 602T305 592T310 580Q300 559 288 537T263 489Q298 489 333 485T403 471Q465 453 495 416T526 336Q526 294 498 253T413 186Q390 175 355 165T281 147T209 140Q179 140 159 146Q149 149 149 156Q149 166 160 164Q168 162 179 161T204 160Q254 160 304 179T395
228T462 294T487 363Q487 395 460 420T370 457Q336 463 300 463Q273 463 249 460Q213 388 176 309T111 152T69 6Q60 -1 44 -1Z" />
<glyph unicode="&#xdf;" glyph-name="germandbls" horiz-adv-x="523" d="M-58 -192Q-89 -192 -117 -175T-151 -125Q-152 -114 -144 -106T-128 -97Q-115 -97 -116 -121Q-117 -140 -106 -152T-78 -165Q-56 -165 -37 -151T-1 -115Q34 -70 63 -10T117 120T167 260H165Q132
254 102 251T61 248Q54 248 47 253T40 265Q40 272 49 276T69 284T86 287Q95 287 99 281T108 274Q122 276 137 277T166 281H175Q180 295 185 309T196 339Q206 367 225 403T270 473T330 529T402 552Q430 554 452 547T488 522Q504 501 504 473Q504 439 482 408Q460
377 436 360T385 327Q374 321 359 312T332 291T321 265Q321 249 340 234Q358 220 383 201T430 160T464 121Q478 100 478 78Q478 53 462 31T421 -8T372 -35Q362 -39 332 -44T269 -50Q242 -50 221 -45T191 -25Q190 -23 190 -21Q190 -16 195 -16Q199 -16 206 -21Q214
-28 225 -30T251 -33Q275 -33 303 -25T357 -1T398 38T414 91Q414 113 400 132T366 168T325 202T290 237T276 276Q276 287 289 296T321 314Q361 334 401 356T465 418Q481 443 481 468Q481 493 464 510T413 527Q401 527 376 519T325 487Q280 446 248 383T191 245T143
96T93 -42T30 -147Q12 -167 -10 -179T-58 -192Z" />
<glyph unicode="&#xe0;" glyph-name="agrave" horiz-adv-x="453" d="M319 -10Q302 -10 288 -2T266 28Q263 37 263 53Q263 75 269 102T282 148Q277 146 264 131T231 94T188 51T139 15T90 1Q74 1 56 10T27 35Q12 55 12 76Q12 103 30 132T78 188T141 238T205 276T255
297Q275 303 300 303Q314 303 329 300T354 288Q362 284 367 277T372 262Q372 254 365 257Q357 269 344 272T316 276Q276 276 228 250T142 189Q130 179 110 155T72 101T55 48Q55 35 62 25Q66 18 75 18Q89 18 112 33T161 69T206 111T236 140Q241 145 255 160T287
194T317 225T335 238Q340 238 351 236T371 228T374 215Q348 177 333 136T314 70Q313 66 313 63T313 55Q313 15 341 15Q356 15 381 33T432 76T479 124T509 160Q512 163 515 163Q519 163 522 160T522 151Q511 133 490 108T443 58T392 15Q379 5 359 -2T319 -10ZM379
365Q373 365 353 373T309 392T265 415T237 432Q233 435 230 438T227 445Q227 454 238 462Q246 468 253 468Q258 468 268 460T292 440Q319 419 340 404T372 383Q387 376 387 369Q387 365 379 365Z" />
<glyph unicode="&#xe1;" glyph-name="aacute" horiz-adv-x="453" d="M319 -10Q302 -10 288 -2T266 28Q263 37 263 53Q263 75 269 102T282 148Q277 146 264 131T231 94T188 51T139 15T90 1Q74 1 56 10T27 35Q12 55 12 76Q12 103 30 132T78 188T141 238T205 276T255
297Q275 303 300 303Q314 303 329 300T354 288Q362 284 367 277T372 262Q372 254 365 257Q357 269 344 272T316 276Q276 276 228 250T142 189Q130 179 110 155T72 101T55 48Q55 35 62 25Q66 18 75 18Q89 18 112 33T161 69T206 111T236 140Q241 145 255 160T287
194T317 225T335 238Q340 238 351 236T371 228T374 215Q348 177 333 136T314 70Q313 66 313 63T313 55Q313 15 341 15Q356 15 381 33T432 76T479 124T509 160Q512 163 515 163Q519 163 522 160T522 151Q511 133 490 108T443 58T392 15Q379 5 359 -2T319 -10ZM281
364Q273 364 273 368Q273 373 288 382Q298 388 319 403T368 439Q382 451 391 458T404 465Q407 465 411 465T421 460Q432 452 432 446Q432 442 430 439T425 431Q418 425 397 414T351 392T306 372T281 364Z" />
<glyph unicode="&#xe2;" glyph-name="acircumflex" horiz-adv-x="453" d="M319 -10Q302 -10 288 -2T266 28Q263 37 263 53Q263 75 269 102T282 148Q277 146 264 131T231 94T188 51T139 15T90 1Q74 1 56 10T27 35Q12 55 12 76Q12 103 30 132T78 188T141 238T205
276T255 297Q275 303 300 303Q314 303 329 300T354 288Q362 284 367 277T372 262Q372 254 365 257Q357 269 344 272T316 276Q276 276 228 250T142 189Q130 179 110 155T72 101T55 48Q55 35 62 25Q66 18 75 18Q89 18 112 33T161 69T206 111T236 140Q241 145 255
160T287 194T317 225T335 238Q340 238 351 236T371 228T374 215Q348 177 333 136T314 70Q313 66 313 63T313 55Q313 15 341 15Q356 15 381 33T432 76T479 124T509 160Q512 163 515 163Q519 163 522 160T522 151Q511 133 490 108T443 58T392 15Q379 5 359 -2T319
-10ZM373 478Q381 478 390 460T408 419T420 387Q422 378 422 374T423 366Q421 357 414 354Q407 360 396 376T372 410T354 438Q337 428 313 409T268 375T237 359Q233 359 233 363Q235 370 249 382Q260 392 278 407T316 439T351 467T373 478Z" />
<glyph unicode="&#xe3;" glyph-name="atilde" horiz-adv-x="453" d="M319 -10Q302 -10 288 -2T266 28Q263 37 263 53Q263 75 269 102T282 148Q277 146 264 131T231 94T188 51T139 15T90 1Q74 1 56 10T27 35Q12 55 12 76Q12 103 30 132T78 188T141 238T205 276T255
297Q275 303 300 303Q314 303 329 300T354 288Q362 284 367 277T372 262Q372 254 365 257Q357 269 344 272T316 276Q276 276 228 250T142 189Q130 179 110 155T72 101T55 48Q55 35 62 25Q66 18 75 18Q89 18 112 33T161 69T206 111T236 140Q241 145 255 160T287
194T317 225T335 238Q340 238 351 236T371 228T374 215Q348 177 333 136T314 70Q313 66 313 63T313 55Q313 15 341 15Q356 15 381 33T432 76T479 124T509 160Q512 163 515 163Q519 163 522 160T522 151Q511 133 490 108T443 58T392 15Q379 5 359 -2T319 -10ZM234
371Q226 371 226 375V376Q243 399 260 419T301 440Q311 440 328 431T365 413T401 403Q411 403 417 410T429 425T439 432Q448 432 448 429V427Q438 407 421 391T384 374Q369 374 354 381T323 396T292 404Q282 404 269 396T247 380T234 371Z" />
<glyph unicode="&#xe4;" glyph-name="adieresis" horiz-adv-x="453" d="M319 -10Q302 -10 288 -2T266 28Q263 37 263 53Q263 75 269 102T282 148Q277 146 264 131T231 94T188 51T139 15T90 1Q74 1 56 10T27 35Q12 55 12 76Q12 103 30 132T78 188T141 238T205 276T255
297Q275 303 300 303Q314 303 329 300T354 288Q362 284 367 277T372 262Q372 254 365 257Q357 269 344 272T316 276Q276 276 228 250T142 189Q130 179 110 155T72 101T55 48Q55 35 62 25Q66 18 75 18Q89 18 112 33T161 69T206 111T236 140Q241 145 255 160T287
194T317 225T335 238Q340 238 351 236T371 228T374 215Q348 177 333 136T314 70Q313 66 313 63T313 55Q313 15 341 15Q356 15 381 33T432 76T479 124T509 160Q512 163 515 163Q519 163 522 160T522 151Q511 133 490 108T443 58T392 15Q379 5 359 -2T319 -10ZM287
366Q276 366 265 368T253 382Q253 385 263 393T286 411T300 422Q312 433 317 433Q319 433 319 431Q319 427 316 420T312 405Q312 397 303 382T287 366ZM387 366Q376 366 365 368T354 382Q354 385 364 393T387 411T401 422Q413 433 418 433Q419 433 419 431Q419
427 416 420T413 405Q413 397 403 382T387 366Z" />
<glyph unicode="&#xe5;" glyph-name="aring" horiz-adv-x="453" d="M319 -10Q302 -10 288 -2T266 28Q263 37 263 53Q263 75 269 102T282 148Q277 146 264 131T231 94T188 51T139 15T90 1Q74 1 56 10T27 35Q12 55 12 76Q12 103 30 132T78 188T141 238T205 276T255
297Q275 303 300 303Q314 303 329 300T354 288Q362 284 367 277T372 262Q372 254 365 257Q357 269 344 272T316 276Q276 276 228 250T142 189Q130 179 110 155T72 101T55 48Q55 35 62 25Q66 18 75 18Q89 18 112 33T161 69T206 111T236 140Q241 145 255 160T287
194T317 225T335 238Q340 238 351 236T371 228T374 215Q348 177 333 136T314 70Q313 66 313 63T313 55Q313 15 341 15Q356 15 381 33T432 76T479 124T509 160Q512 163 515 163Q519 163 522 160T522 151Q511 133 490 108T443 58T392 15Q379 5 359 -2T319 -10ZM338
362Q313 362 294 374T274 411Q274 419 282 437T312 470T373 485Q393 485 411 476T429 443Q429 424 417 405T384 374T338 362ZM338 375Q363 375 384 395T405 441Q405 453 398 463T371 473Q354 473 338 461T312 433T302 404Q302 392 310 384T338 375Z" />
<glyph unicode="&#xe6;" glyph-name="ae" horiz-adv-x="564" d="M375 -16Q338 -16 311 -1Q286 12 276 32T266 75Q266 93 270 112T282 148Q277 146 264 131T231 94T188 51T139 15T90 1Q74 1 56 10T27 35Q12 55 12 76Q12 103 30 132T78 188T141 238T205 276T255
297Q275 303 300 303Q314 303 329 300T354 288Q362 284 367 277T372 262Q372 254 365 257Q357 269 344 272T316 276Q276 276 228 250T142 189Q130 179 110 155T72 101T55 48Q55 35 62 25Q66 18 75 18Q89 18 112 33T161 69T206 111T236 140Q241 145 255 160T287
194T317 225T335 238Q340 238 350 236T368 229Q404 260 444 281T517 303Q529 303 538 300Q555 294 562 281T569 254Q569 228 554 208Q536 181 504 160T437 127T379 113H377Q364 113 364 121Q364 126 372 126Q396 128 432 148T497 191Q508 201 524 219T541 254Q541
272 525 272Q516 272 506 268T490 262Q461 248 427 219T364 153T323 79Q321 72 320 65T319 51Q319 26 334 16T372 5Q405 5 440 19T508 57T569 107T615 159Q621 167 625 163Q633 158 626 149Q603 109 563 71T474 9T375 -16Z" />
<glyph unicode="&#xe7;" glyph-name="ccedilla" horiz-adv-x="312" d="M158 -11Q140 -14 122 -14Q78 -14 49 7T20 68Q20 92 34 126Q44 149 71 179T134 237T207 284T274 303Q285 303 294 300Q305 296 313 289T321 268Q321 265 321 262T319 255Q319 252 315 242T305
225T295 221Q291 224 291 229Q291 234 293 240T296 252Q296 259 293 265T281 272Q262 272 232 255T171 210T114 147T79 79Q76 71 75 64T74 49Q74 27 88 18T124 8Q147 8 171 15Q239 35 281 70T367 160Q371 165 374 164T379 163Q382 162 382 157Q382 155 381 152T379
147Q336 89 284 46T158 -11ZM294 22Q271 22 251 31T221 60Q218 66 218 69Q218 74 221 74T226 73Q230 66 246 51T286 36Q312 36 336 46T375 74T390 115Q390 132 380 142T350 153Q339 153 326 150T305 147Q298 147 298 151Q298 154 308 170T331 205T357 239T374 254Q383
254 383 247Q383 246 376 236T360 211T342 186T330 169Q338 171 343 171T356 172Q391 172 409 156T428 115Q428 88 408 67T357 34T294 22Z" />
<glyph unicode="&#xe8;" glyph-name="egrave" horiz-adv-x="319" d="M131 -15Q86 -15 53 6T20 70Q20 93 34 126Q44 149 71 179T134 237T207 284T274 303Q285 303 294 300Q311 294 317 281T324 254Q324 241 320 229T310 208Q292 181 259 160T191 127T134 113H132Q119
113 119 121Q119 126 127 126Q151 128 187 148T252 191Q264 201 280 219T297 254Q297 272 280 272Q271 272 262 268T246 262Q217 248 182 219T119 153T79 79Q76 71 75 64T74 49Q74 25 89 15T127 5Q160 5 195 19T263 57T323 106T370 158Q373 162 377 162T382 161Q386
160 386 156T384 147Q356 108 317 71T230 10T131 -15ZM335 365Q329 365 309 373T265 392T221 415T193 432Q189 435 186 438T183 445Q183 454 194 462Q202 468 209 468Q214 468 224 460T248 440Q275 419 296 404T328 383Q343 376 343 369Q343 365 335 365Z" />
<glyph unicode="&#xe9;" glyph-name="eacute" horiz-adv-x="319" d="M131 -15Q86 -15 53 6T20 70Q20 93 34 126Q44 149 71 179T134 237T207 284T274 303Q285 303 294 300Q311 294 317 281T324 254Q324 241 320 229T310 208Q292 181 259 160T191 127T134 113H132Q119
113 119 121Q119 126 127 126Q151 128 187 148T252 191Q264 201 280 219T297 254Q297 272 280 272Q271 272 262 268T246 262Q217 248 182 219T119 153T79 79Q76 71 75 64T74 49Q74 25 89 15T127 5Q160 5 195 19T263 57T323 106T370 158Q373 162 377 162T382 161Q386
160 386 156T384 147Q356 108 317 71T230 10T131 -15ZM237 364Q229 364 229 368Q229 373 244 382Q254 388 275 403T324 439Q338 451 347 458T360 465Q363 465 367 465T377 460Q388 452 388 446Q388 442 386 439T381 431Q374 425 353 414T307 392T262 372T237 364Z"
/>
<glyph unicode="&#xea;" glyph-name="ecircumflex" horiz-adv-x="319" d="M131 -15Q86 -15 53 6T20 70Q20 93 34 126Q44 149 71 179T134 237T207 284T274 303Q285 303 294 300Q311 294 317 281T324 254Q324 241 320 229T310 208Q292 181 259 160T191 127T134 113H132Q119
113 119 121Q119 126 127 126Q151 128 187 148T252 191Q264 201 280 219T297 254Q297 272 280 272Q271 272 262 268T246 262Q217 248 182 219T119 153T79 79Q76 71 75 64T74 49Q74 25 89 15T127 5Q160 5 195 19T263 57T323 106T370 158Q373 162 377 162T382 161Q386
160 386 156T384 147Q356 108 317 71T230 10T131 -15ZM329 478Q337 478 346 460T364 419T376 387Q378 378 378 374T379 366Q377 357 370 354Q363 360 352 376T328 410T310 438Q293 428 269 409T224 375T193 359Q189 359 189 363Q191 370 205 382Q216 392 234 407T272
439T307 467T329 478Z" />
<glyph unicode="&#xeb;" glyph-name="edieresis" horiz-adv-x="319" d="M131 -15Q86 -15 53 6T20 70Q20 93 34 126Q44 149 71 179T134 237T207 284T274 303Q285 303 294 300Q311 294 317 281T324 254Q324 241 320 229T310 208Q292 181 259 160T191 127T134 113H132Q119
113 119 121Q119 126 127 126Q151 128 187 148T252 191Q264 201 280 219T297 254Q297 272 280 272Q271 272 262 268T246 262Q217 248 182 219T119 153T79 79Q76 71 75 64T74 49Q74 25 89 15T127 5Q160 5 195 19T263 57T323 106T370 158Q373 162 377 162T382 161Q386
160 386 156T384 147Q356 108 317 71T230 10T131 -15ZM243 366Q232 366 221 368T209 382Q209 385 219 393T242 411T256 422Q268 433 273 433Q275 433 275 431Q275 427 272 420T268 405Q268 397 259 382T243 366ZM343 366Q332 366 321 368T310 382Q310 385 320 393T343
411T357 422Q369 433 374 433Q375 433 375 431Q375 427 372 420T369 405Q369 397 359 382T343 366Z" />
<glyph unicode="&#xec;" glyph-name="igrave" horiz-adv-x="226" d="M212 387Q205 387 181 397T129 421T79 447Q71 451 57 462T43 483Q43 491 57 497Q60 498 66 498Q77 498 89 491T115 475Q140 455 165 437T216 398Q221 396 221 392Q221 387 212 387ZM89 -10Q70
-10 52 1T33 41Q33 61 42 91T64 149Q64 149 56 136T37 109T18 96Q11 96 11 104Q11 107 15 114Q41 147 61 173T92 217Q91 219 91 221Q91 243 100 258T120 280T135 288Q146 288 155 284T165 268Q165 253 143 215Q117 161 100 121T83 55Q83 38 89 27T109 15Q120 15
150 35T215 89T278 160Q279 164 284 164Q292 164 292 157Q292 153 291 152Q280 131 258 104T206 50T147 7T89 -10Z" />
<glyph unicode="&#xed;" glyph-name="iacute" horiz-adv-x="226" d="M170 376Q162 376 162 381Q162 384 166 388Q167 390 178 397T202 414T221 427Q241 444 261 457T296 490Q302 492 305 492Q311 492 316 490T324 487Q336 480 336 467Q336 459 330 454L329 453Q321
447 298 435T248 409T199 387T170 376ZM89 -10Q70 -10 52 1T33 41Q33 61 42 91T64 149Q64 149 56 136T37 109T18 96Q11 96 11 104Q11 107 15 114Q41 147 61 173T92 217Q91 219 91 221Q91 243 100 258T120 280T135 288Q146 288 155 284T165 268Q165 253 143 215Q117
161 100 121T83 55Q83 38 89 27T109 15Q120 15 150 35T215 89T278 160Q279 164 284 164Q292 164 292 157Q292 153 291 152Q280 131 258 104T206 50T147 7T89 -10Z" />
<glyph unicode="&#xee;" glyph-name="icircumflex" horiz-adv-x="226" d="M277 359Q279 359 269 367T242 388T211 414T186 437Q170 427 149 409T110 377T80 362Q76 362 76 365Q76 369 80 375T87 385Q93 390 108 403T141 433T175 460T198 472Q208 468 223 451T254
414T278 380Q282 373 282 367Q282 359 277 359ZM89 -10Q70 -10 52 1T33 41Q33 61 42 91T64 149Q64 149 56 136T37 109T18 96Q11 96 11 104Q11 107 15 114Q41 147 61 173T92 217Q91 219 91 221Q91 243 100 258T120 280T135 288Q146 288 155 284T165 268Q165 253
143 215Q117 161 100 121T83 55Q83 38 89 27T109 15Q120 15 150 35T215 89T278 160Q279 164 284 164Q292 164 292 157Q292 153 291 152Q280 131 258 104T206 50T147 7T89 -10Z" />
<glyph unicode="&#xef;" glyph-name="idieresis" horiz-adv-x="226" d="M109 373Q99 373 88 375T76 390Q76 393 87 401T110 419T124 430Q137 440 140 440Q142 440 142 437Q142 433 139 426T136 412Q136 405 127 389T109 373ZM268 373Q258 373 246 375T234 390Q234
393 245 401T268 419T282 430Q296 440 299 440Q301 440 301 437Q301 433 298 426T295 412Q295 407 290 398T279 381T268 373ZM89 -10Q70 -10 52 1T33 41Q33 61 42 91T64 149Q64 149 56 136T37 109T18 96Q11 96 11 104Q11 107 15 114Q41 147 61 173T92 217Q91 219
91 221Q91 243 100 258T120 280T135 288Q146 288 155 284T165 268Q165 253 143 215Q117 161 100 121T83 55Q83 38 89 27T109 15Q120 15 150 35T215 89T278 160Q279 164 284 164Q292 164 292 157Q292 153 291 152Q280 131 258 104T206 50T147 7T89 -10Z" />
<glyph unicode="&#xf0;" glyph-name="eth" horiz-adv-x="432" d="M131 -16Q119 -16 106 -14T81 -9Q53 -1 37 18T20 68Q20 92 34 126Q44 149 71 179T134 237T207 284T274 303Q285 303 294 300Q305 296 313 289T321 268Q321 265 321 262T319 255Q315 247 311 247Q309
247 308 250T306 254Q306 260 298 266T281 272Q262 272 232 255T171 210T114 147T79 79Q74 61 74 49Q74 26 90 15Q110 3 133 3Q163 3 192 18T244 55T281 92Q333 158 359 226T392 379Q371 372 353 367T322 357Q318 356 315 356T308 355Q296 355 296 365Q296 373
304 383T321 395Q329 397 349 402T395 414Q395 435 393 461T382 512T357 553T314 570Q301 570 288 564T265 545Q256 535 248 530T233 525Q225 525 220 531T215 547Q215 556 220 566T238 583Q259 595 286 595Q332 595 363 569T412 504T432 424Q450 429 464 432Q478
435 487 436T504 437Q521 437 521 432Q521 426 511 421T489 411T473 406Q463 403 453 400T432 392Q431 344 418 289T380 179T318 81T235 11T131 -16Z" />
<glyph unicode="&#xf1;" glyph-name="ntilde" horiz-adv-x="404" d="M-2 -13Q-9 -13 -6 -6Q-3 0 5 21T23 73T45 135T65 195T81 239Q83 245 85 256T93 277T116 287Q146 287 146 273Q146 268 141 256Q129 229 115 194T90 128T73 80Q83 94 105 120T156 176T214 234T271
279T317 297Q341 297 341 271Q341 262 336 244Q327 219 313 196T288 146Q269 99 266 70Q265 66 265 63T265 55Q265 15 292 15Q307 15 332 33T383 76T431 124T460 160Q463 163 466 163Q470 163 472 160T473 152Q464 135 443 110T395 59T344 15Q329 5 307 -3T263
-10Q235 -7 223 9T211 49Q211 76 221 106T245 164T266 205Q274 221 274 230Q274 238 267 238Q260 238 246 229T208 198Q186 179 161 149T113 86T72 31T47 4Q42 1 25 -6T-2 -13ZM147 371Q139 371 139 375V376Q156 399 173 419T214 440Q224 440 241 431T278 413T314
403Q324 403 330 410T342 425T352 432Q361 432 361 429V427Q351 407 334 391T297 374Q282 374 267 381T236 396T205 404Q195 404 182 396T160 380T147 371Z" />
<glyph unicode="&#xf2;" glyph-name="ograve" horiz-adv-x="351" d="M118 -11Q90 -11 69 2Q34 23 34 78Q34 101 42 131Q49 156 67 185T109 242T163 286T221 303Q233 303 242 300Q254 296 262 286T271 259Q271 242 263 240T254 244Q254 246 254 248T255 251Q255
259 251 265T234 272Q218 272 195 255T147 210T104 147T79 79Q78 74 78 70T77 60Q77 37 87 22T121 6Q149 6 175 27T221 79T252 132Q260 150 263 163T266 185Q266 193 265 199T261 209Q259 215 259 218Q259 226 265 231T279 236Q285 236 292 232Q300 230 314 229T344
228Q361 228 378 229T409 233Q411 234 415 234Q422 234 422 230Q422 226 415 223Q380 207 353 206T305 205Q307 180 294 152T267 101Q250 76 228 50T179 7T118 -11ZM319 365Q313 365 293 373T249 392T205 415T177 432Q173 435 170 438T167 445Q167 454 178 462Q186
468 193 468Q198 468 208 460T232 440Q259 419 280 404T312 383Q327 376 327 369Q327 365 319 365Z" />
<glyph unicode="&#xf3;" glyph-name="oacute" horiz-adv-x="351" d="M118 -11Q90 -11 69 2Q34 23 34 78Q34 101 42 131Q49 156 67 185T109 242T163 286T221 303Q233 303 242 300Q254 296 262 286T271 259Q271 242 263 240T254 244Q254 246 254 248T255 251Q255
259 251 265T234 272Q218 272 195 255T147 210T104 147T79 79Q78 74 78 70T77 60Q77 37 87 22T121 6Q149 6 175 27T221 79T252 132Q260 150 263 163T266 185Q266 193 265 199T261 209Q259 215 259 218Q259 226 265 231T279 236Q285 236 292 232Q300 230 314 229T344
228Q361 228 378 229T409 233Q411 234 415 234Q422 234 422 230Q422 226 415 223Q380 207 353 206T305 205Q307 180 294 152T267 101Q250 76 228 50T179 7T118 -11ZM221 364Q213 364 213 368Q213 373 228 382Q238 388 259 403T308 439Q322 451 331 458T344 465Q347
465 351 465T361 460Q372 452 372 446Q372 442 370 439T365 431Q358 425 337 414T291 392T246 372T221 364Z" />
<glyph unicode="&#xf4;" glyph-name="ocircumflex" horiz-adv-x="351" d="M118 -11Q90 -11 69 2Q34 23 34 78Q34 101 42 131Q49 156 67 185T109 242T163 286T221 303Q233 303 242 300Q254 296 262 286T271 259Q271 242 263 240T254 244Q254 246 254 248T255 251Q255
259 251 265T234 272Q218 272 195 255T147 210T104 147T79 79Q78 74 78 70T77 60Q77 37 87 22T121 6Q149 6 175 27T221 79T252 132Q260 150 263 163T266 185Q266 193 265 199T261 209Q259 215 259 218Q259 226 265 231T279 236Q285 236 292 232Q300 230 314 229T344
228Q361 228 378 229T409 233Q411 234 415 234Q422 234 422 230Q422 226 415 223Q380 207 353 206T305 205Q307 180 294 152T267 101Q250 76 228 50T179 7T118 -11ZM313 478Q321 478 330 460T348 419T360 387Q362 378 362 374T363 366Q361 357 354 354Q347 360
336 376T312 410T294 438Q277 428 253 409T208 375T177 359Q173 359 173 363Q175 370 189 382Q200 392 218 407T256 439T291 467T313 478Z" />
<glyph unicode="&#xf5;" glyph-name="otilde" horiz-adv-x="351" d="M118 -11Q90 -11 69 2Q34 23 34 78Q34 101 42 131Q49 156 67 185T109 242T163 286T221 303Q233 303 242 300Q254 296 262 286T271 259Q271 242 263 240T254 244Q254 246 254 248T255 251Q255
259 251 265T234 272Q218 272 195 255T147 210T104 147T79 79Q78 74 78 70T77 60Q77 37 87 22T121 6Q149 6 175 27T221 79T252 132Q260 150 263 163T266 185Q266 193 265 199T261 209Q259 215 259 218Q259 226 265 231T279 236Q285 236 292 232Q300 230 314 229T344
228Q361 228 378 229T409 233Q411 234 415 234Q422 234 422 230Q422 226 415 223Q380 207 353 206T305 205Q307 180 294 152T267 101Q250 76 228 50T179 7T118 -11ZM174 371Q166 371 166 375V376Q183 399 200 419T241 440Q251 440 268 431T305 413T341 403Q351
403 357 410T369 425T379 432Q388 432 388 429V427Q378 407 361 391T324 374Q309 374 294 381T263 396T232 404Q222 404 209 396T187 380T174 371Z" />
<glyph unicode="&#xf6;" glyph-name="odieresis" horiz-adv-x="351" d="M118 -11Q90 -11 69 2Q34 23 34 78Q34 101 42 131Q49 156 67 185T109 242T163 286T221 303Q233 303 242 300Q254 296 262 286T271 259Q271 242 263 240T254 244Q254 246 254 248T255 251Q255
259 251 265T234 272Q218 272 195 255T147 210T104 147T79 79Q78 74 78 70T77 60Q77 37 87 22T121 6Q149 6 175 27T221 79T252 132Q260 150 263 163T266 185Q266 193 265 199T261 209Q259 215 259 218Q259 226 265 231T279 236Q285 236 292 232Q300 230 314 229T344
228Q361 228 378 229T409 233Q411 234 415 234Q422 234 422 230Q422 226 415 223Q380 207 353 206T305 205Q307 180 294 152T267 101Q250 76 228 50T179 7T118 -11ZM227 366Q216 366 205 368T193 382Q193 385 203 393T226 411T240 422Q252 433 257 433Q259 433
259 431Q259 427 256 420T252 405Q252 397 243 382T227 366ZM327 366Q316 366 305 368T294 382Q294 385 304 393T327 411T341 422Q353 433 358 433Q359 433 359 431Q359 427 356 420T353 405Q353 397 343 382T327 366Z" />
<glyph unicode="&#xf7;" glyph-name="divide" horiz-adv-x="469" d="M319 262Q309 262 297 264T285 278Q285 280 290 285T300 296L318 312Q333 323 340 323Q346 323 346 316T346 301Q346 296 341 287T330 270T319 262ZM111 170Q100 170 107 170Q93 171 93 180Q93
188 104 197T125 206Q132 206 159 206T225 206T302 207T372 208T415 208Q440 208 455 204T470 194Q471 188 459 185T434 181T416 178Q402 177 369 176T295 174T214 173T145 171T107 170Q107 170 111 170ZM248 55Q237 55 226 57T214 72Q214 75 225 86T249 107T267
117Q273 117 273 109T273 94Q273 89 268 80T258 63T248 55Z" />
<glyph unicode="&#xf8;" glyph-name="oslash" horiz-adv-x="351" d="M39 -52Q33 -52 33 -47Q33 -38 63 6Q35 28 35 78Q35 90 36 103T42 131Q49 156 67 185T109 242T163 286T221 303Q232 303 244 299T263 284Q283 310 296 328T317 350Q325 356 337 356Q344 356
347 354T346 347Q333 334 314 312T271 259V252Q269 243 265 241T257 239Q218 190 174 131T94 15Q99 11 105 9T121 6Q144 6 173 28T225 84Q222 87 222 90Q221 94 221 100Q221 112 228 118T248 123Q259 145 262 160T266 185Q266 193 265 199T261 209Q259 215 259
218Q259 226 266 231T280 236Q298 236 302 220Q305 210 305 199Q305 170 289 138T259 86Q260 73 267 66T283 58Q303 58 326 76T370 119T403 160Q406 163 409 163Q413 163 415 160T415 152Q411 143 402 132T382 106Q371 93 355 77T319 48T281 36Q254 36 239 61Q216
34 187 12T118 -10Q98 -10 83 -4Q77 -13 72 -22T61 -39Q53 -52 39 -52ZM81 33Q104 67 133 108T193 190T250 266Q247 272 234 272Q218 272 195 255T147 210T104 147T79 79Q78 73 78 68T77 57Q77 42 81 33Z" />
<glyph unicode="&#xf9;" glyph-name="ugrave" horiz-adv-x="444" d="M307 -10Q289 -10 275 -2T254 28Q253 33 252 39T250 53Q250 77 256 107T271 157Q267 154 257 137T232 98T199 53T159 16T113 1Q97 1 75 10T42 35Q32 51 32 75Q32 104 45 138T78 203Q85 213 94
227T112 251T125 263Q137 267 153 267Q170 267 178 263Q185 260 185 256Q185 251 177 243Q166 233 147 213T110 165T79 103Q69 76 69 56Q69 21 97 21Q121 21 148 41T200 90T246 147T278 193Q288 207 300 229T325 272T344 303Q351 303 365 301T390 292T396 277Q390
267 378 246T353 204T333 169Q309 123 302 70Q301 66 301 63T301 55Q301 15 328 15Q343 15 368 33T419 76T467 124T497 160Q499 163 503 163Q507 163 509 160T509 152Q500 135 479 110T431 59T380 15Q367 5 347 -2T307 -10ZM314 360Q308 360 288 368T244 387T200
410T172 427Q168 430 165 433T162 440Q162 449 173 457Q181 463 188 463Q193 463 203 455T227 435Q254 414 275 399T307 378Q322 371 322 364Q322 360 314 360Z" />
<glyph unicode="&#xfa;" glyph-name="uacute" horiz-adv-x="444" d="M307 -10Q289 -10 275 -2T254 28Q253 33 252 39T250 53Q250 77 256 107T271 157Q267 154 257 137T232 98T199 53T159 16T113 1Q97 1 75 10T42 35Q32 51 32 75Q32 104 45 138T78 203Q85 213 94
227T112 251T125 263Q137 267 153 267Q170 267 178 263Q185 260 185 256Q185 251 177 243Q166 233 147 213T110 165T79 103Q69 76 69 56Q69 21 97 21Q121 21 148 41T200 90T246 147T278 193Q288 207 300 229T325 272T344 303Q351 303 365 301T390 292T396 277Q390
267 378 246T353 204T333 169Q309 123 302 70Q301 66 301 63T301 55Q301 15 328 15Q343 15 368 33T419 76T467 124T497 160Q499 163 503 163Q507 163 509 160T509 152Q500 135 479 110T431 59T380 15Q367 5 347 -2T307 -10ZM216 359Q208 359 208 363Q208 368 223
377Q233 383 254 398T303 434Q317 446 326 453T339 460Q342 460 346 460T356 455Q367 447 367 441Q367 437 365 434T360 426Q353 420 332 409T286 387T241 367T216 359Z" />
<glyph unicode="&#xfb;" glyph-name="ucircumflex" horiz-adv-x="444" d="M307 -10Q289 -10 275 -2T254 28Q253 33 252 39T250 53Q250 77 256 107T271 157Q267 154 257 137T232 98T199 53T159 16T113 1Q97 1 75 10T42 35Q32 51 32 75Q32 104 45 138T78 203Q85
213 94 227T112 251T125 263Q137 267 153 267Q170 267 178 263Q185 260 185 256Q185 251 177 243Q166 233 147 213T110 165T79 103Q69 76 69 56Q69 21 97 21Q121 21 148 41T200 90T246 147T278 193Q288 207 300 229T325 272T344 303Q351 303 365 301T390 292T396
277Q390 267 378 246T353 204T333 169Q309 123 302 70Q301 66 301 63T301 55Q301 15 328 15Q343 15 368 33T419 76T467 124T497 160Q499 163 503 163Q507 163 509 160T509 152Q500 135 479 110T431 59T380 15Q367 5 347 -2T307 -10ZM308 473Q316 473 325 455T343
414T355 382Q357 373 357 369T358 361Q356 352 349 349Q342 355 331 371T307 405T289 433Q272 423 248 404T203 370T172 354Q168 354 168 358Q170 365 184 377Q195 387 213 402T251 434T286 462T308 473Z" />
<glyph unicode="&#xfc;" glyph-name="udieresis" horiz-adv-x="444" d="M307 -10Q289 -10 275 -2T254 28Q253 33 252 39T250 53Q250 77 256 107T271 157Q267 154 257 137T232 98T199 53T159 16T113 1Q97 1 75 10T42 35Q32 51 32 75Q32 104 45 138T78 203Q85 213
94 227T112 251T125 263Q137 267 153 267Q170 267 178 263Q185 260 185 256Q185 251 177 243Q166 233 147 213T110 165T79 103Q69 76 69 56Q69 21 97 21Q121 21 148 41T200 90T246 147T278 193Q288 207 300 229T325 272T344 303Q351 303 365 301T390 292T396 277Q390
267 378 246T353 204T333 169Q309 123 302 70Q301 66 301 63T301 55Q301 15 328 15Q343 15 368 33T419 76T467 124T497 160Q499 163 503 163Q507 163 509 160T509 152Q500 135 479 110T431 59T380 15Q367 5 347 -2T307 -10ZM222 361Q211 361 200 363T188 377Q188
380 198 388T221 406T235 417Q247 428 252 428Q254 428 254 426Q254 422 251 415T247 400Q247 392 238 377T222 361ZM322 361Q311 361 300 363T289 377Q289 380 299 388T322 406T336 417Q348 428 353 428Q354 428 354 426Q354 422 351 415T348 400Q348 392 338
377T322 361Z" />
<glyph unicode="&#xfd;" glyph-name="yacute" horiz-adv-x="415" d="M-2 -367Q-14 -364 -23 -361Q-42 -351 -50 -339T-58 -312Q-58 -289 -43 -263T-2 -208Q23 -178 61 -147T142 -88T216 -38Q233 -3 251 37T287 114T316 183T335 231Q319 212 298 184T252 124T201
64T146 19T91 1Q51 1 36 21T20 70Q20 90 25 110T40 147Q46 159 59 179T89 220T123 255T157 269Q176 269 186 256T188 237Q172 226 149 204T102 152Q96 144 88 127T72 91T65 55Q65 48 67 42T74 32Q82 26 92 26Q106 26 123 35T157 58Q213 112 257 171T350 288Q353
298 367 298Q383 298 400 289T415 273Q406 253 392 220T360 149T326 74T295 6Q307 12 338 36T406 94T473 166Q479 172 482 172Q488 172 488 164Q488 157 482 148Q467 128 441 101T384 47T324 -3T274 -38Q243 -104 214 -162T161 -257Q145 -282 122 -308T72 -351T15
-369Q11 -369 7 -369T-2 -367ZM1 -345Q9 -345 20 -340T45 -324Q83 -293 109 -252T155 -164T197 -76Q158 -105 109 -144T20 -223Q-4 -247 -15 -270T-26 -312Q-26 -345 1 -345ZM226 369Q218 369 218 373Q218 378 233 387Q243 393 264 408T313 444Q327 456 336 463T349
470Q352 470 356 470T366 465Q377 457 377 451Q377 447 375 444T370 436Q363 430 342 419T296 397T251 377T226 369Z" />
<glyph unicode="&#xfe;" glyph-name="thorn" horiz-adv-x="351" d="M-128 -342Q-140 -342 -140 -332Q-140 -328 -137 -321Q-127 -300 -108 -254T-63 -146T-10 -13T46 132T99 274T144 398T175 490T187 535Q187 543 198 544T219 546Q252 546 252 525Q252 508 232
477Q225 465 210 431T175 352T138 261T105 180T86 132Q110 164 131 195T180 248Q202 265 223 275T270 286Q296 286 322 274T352 234Q353 231 353 228T353 221Q353 186 333 153T284 93T232 51Q212 39 184 25T124 1T63 -9Q45 -9 33 -5Q20 -35 3 -82T-29 -176Q-36
-196 -34 -208T-39 -240Q-45 -260 -52 -278T-68 -314Q-70 -318 -80 -325T-104 -337T-128 -342ZM41 11Q73 11 108 26T177 66T238 120T283 178Q303 210 303 237Q303 268 276 268Q269 268 259 266T236 256Q183 228 149 191T91 108T41 11Z" />
<glyph unicode="&#xff;" glyph-name="ydieresis" horiz-adv-x="415" d="M-2 -367Q-14 -364 -23 -361Q-42 -351 -50 -339T-58 -312Q-58 -289 -43 -263T-2 -208Q23 -178 61 -147T142 -88T216 -38Q233 -3 251 37T287 114T316 183T335 231Q319 212 298 184T252 124T201
64T146 19T91 1Q51 1 36 21T20 70Q20 90 25 110T40 147Q46 159 59 179T89 220T123 255T157 269Q176 269 186 256T188 237Q172 226 149 204T102 152Q96 144 88 127T72 91T65 55Q65 48 67 42T74 32Q82 26 92 26Q106 26 123 35T157 58Q213 112 257 171T350 288Q353
298 367 298Q383 298 400 289T415 273Q406 253 392 220T360 149T326 74T295 6Q307 12 338 36T406 94T473 166Q479 172 482 172Q488 172 488 164Q488 157 482 148Q467 128 441 101T384 47T324 -3T274 -38Q243 -104 214 -162T161 -257Q145 -282 122 -308T72 -351T15
-369Q11 -369 7 -369T-2 -367ZM1 -345Q9 -345 20 -340T45 -324Q83 -293 109 -252T155 -164T197 -76Q158 -105 109 -144T20 -223Q-4 -247 -15 -270T-26 -312Q-26 -345 1 -345ZM232 371Q221 371 210 373T198 387Q198 390 208 398T231 416T245 427Q257 438 262 438Q264
438 264 436Q264 432 261 425T257 410Q257 402 248 387T232 371ZM332 371Q321 371 310 373T299 387Q299 390 309 398T332 416T346 427Q358 438 363 438Q364 438 364 436Q364 432 361 425T358 410Q358 402 348 387T332 371Z" />
<glyph unicode="&#x2013;" glyph-name="endash" horiz-adv-x="375" d="M161 170Q151 170 157 170Q143 171 143 180Q143 188 154 197T176 206Q182 206 209 206T275 206T352 207T422 208T465 208Q490 208 505 204T521 194Q521 188 510 185T485 181T466 178Q452 177
419 176T345 174T264 173T195 171T157 170Q157 170 161 170Z" />
<glyph unicode="&#x2014;" glyph-name="emdash" horiz-adv-x="724" d="M161 170Q153 170 158 170Q143 171 143 180Q143 188 154 197T176 206Q181 206 216 206T303 206T413 207T526 207T618 208T666 208Q691 208 705 204T721 194Q721 188 710 185T685 181T668 178Q656
177 617 177T523 175T408 174T294 172T203 171T158 170Q158 170 161 170Z" />
<glyph unicode="&#x2018;" glyph-name="quoteleft" horiz-adv-x="143" d="M50 433Q38 433 31 445T24 465Q24 475 37 495T69 539T105 581T131 606Q133 608 137 608Q140 608 141 605T142 599Q142 597 135 589T119 572Q105 555 93 536T74 495Q70 483 70 476Q70 466
74 461T78 443Q72 436 63 435T50 433Z" />
<glyph unicode="&#x2019;" glyph-name="quoteright" horiz-adv-x="234" d="M121 433Q118 431 114 431Q110 431 110 434T109 439Q109 441 116 449T132 466Q147 483 159 502T178 543Q182 554 182 562Q182 573 178 577T174 595Q179 603 188 604T201 606Q213 606 220
594T227 573Q227 563 214 542T183 498T147 457T121 433Z" />
<glyph unicode="&#x201a;" glyph-name="quotesinglbase" horiz-adv-x="192" d="M99 -78Q90 -78 91 -62Q93 -51 94 -32T95 5T95 34T95 37Q95 46 94 53T93 68Q93 79 99 85T125 91Q138 91 142 85T147 71Q147 60 143 48T136 28Q132 8 125 -14T109 -66Q106 -78 99 -78Z" />
<glyph unicode="&#x201c;" glyph-name="quotedblleft" horiz-adv-x="166" d="M50 433Q38 433 31 445T24 465Q24 475 37 495T69 539T105 581T131 606Q133 608 137 608Q140 608 141 605T142 599Q142 597 135 589T119 572Q105 555 93 536T74 495Q70 483 70 476Q70
466 74 461T78 443Q72 436 63 435T50 433ZM154 433Q142 433 136 445T129 465Q129 476 142 496T173 540T208 581T234 606Q237 608 241 608Q245 608 245 605T246 599Q246 597 239 589T223 572Q209 555 197 536T178 495Q174 484 174 476Q174 466 179 462T182 443Q177
436 168 435T154 433Z" />
<glyph unicode="&#x201d;" glyph-name="quotedblright" horiz-adv-x="303" d="M225 433Q223 431 219 431Q216 431 215 434T214 439Q214 441 221 449T237 466Q251 483 263 502T282 543Q286 555 286 562Q286 573 282 577T278 595Q283 603 292 604T306 606Q318 606
325 594T332 573Q332 563 319 543T287 499T251 457T225 433ZM121 433Q118 431 114 431Q110 431 110 434T109 439Q109 441 116 449T132 466Q147 483 159 502T178 543Q182 554 182 562Q182 573 178 577T174 595Q179 603 188 604T201 606Q213 606 220 594T227 573Q227
563 214 542T183 498T147 457T121 433Z" />
<glyph unicode="&#x201e;" glyph-name="quotedblbase" horiz-adv-x="311" d="M99 -78Q90 -78 91 -62Q93 -51 94 -32T95 5T95 34T95 37Q95 46 94 53T93 68Q93 79 99 85T125 91Q138 91 142 85T147 71Q147 60 143 48T136 28Q132 8 125 -14T109 -66Q106 -78 99 -78ZM211
-78Q200 -78 203 -62Q205 -49 206 -26T207 17T208 39Q208 48 207 55T206 69Q206 80 212 85T237 91Q249 91 253 85T257 71Q257 60 254 48T248 28Q242 8 236 -14T221 -66Q218 -78 211 -78ZM208 37Q208 37 208 37V37Z" />
<glyph unicode="&#x2022;" glyph-name="bullet" horiz-adv-x="416" d="M199 113Q129 113 99 140T69 211Q69 247 91 282T157 341T263 365Q390 365 390 271Q390 235 366 199T299 138T199 113Z" />
<glyph unicode="&#x2039;" glyph-name="guilsinglleft" horiz-adv-x="295" d="M174 94Q157 121 138 144T95 189Q83 203 83 208Q83 213 88 217T100 228Q130 256 149 275T187 312T238 357Q243 360 246 360T250 354Q250 347 236 330Q226 318 216 307T188 277T134
223Q154 183 169 154T189 109Q193 101 193 93Q193 83 187 83Q181 83 174 94Z" />
<glyph unicode="&#x203a;" glyph-name="guilsinglright" horiz-adv-x="284" d="M95 94Q93 92 89 92Q85 92 85 97Q85 105 97 120Q109 133 118 144T145 175T199 228Q179 269 164 298T143 341Q140 350 140 357Q140 368 146 368Q152 368 160 357Q177 330 196 307T238
261Q250 249 250 243Q250 239 246 235T233 222Q204 195 185 176T147 139T95 94Z" />
</font>
</defs>
</svg>
